[MINI-HD 1080P] Sakurada Reset Part I (2017) เมืองมหัศจรรย์ คนเปลี่ยนเวลา ภาค 1 [พากย์ไทย] [MKV] [ONE2UP]

[MINI-HD 1080P] Sakurada Reset Part I (2017) เมืองมหัศจรรย์ คนเปลี่ยนเวลา ภาค 1

เล่าถึงเรื่องราวของเมือง ซากราดะ เมืองที่เต็มไปด้วยผู้มีพลังพิเศษ และเป็นเมืองที่ทุกความปรารถนาสามารถเป็นจริงได้ไม่ยากเมื่ออาศัยพลังของ “ฮารุกิ มิโซระ” สาวน้อยผู้มีพลังพิเศษสามารถรีเซ็ทโลกให้กลับไปเมื่อ 3 วันก่อนได้ และ “อาซาอิ เคย์” ผู้มีความสามารถในการเก็บรักษาความทรงจำ ความน่าสนใจของเรื่องคือการปฏิบัติภารกิจที่ได้รับมอบหมายให้สำเร็จลุล่วงในแต่ละครั้ง และภารกิจแต่ละครั้งส่งผลต่อโลกที่พวกเขาอยู่ด้วยเช่นเดียวกัน

Sagrada.Reset.Part.I.Mini.HD.TH[load2up.com].mkv
Format : Matroska
Format version : Version 4 / Version 2
File size : 1.84 GiB
Duration : 1 h 43 min
Overall bit rate : 2 554 kb/s
Encoded date : UTC 2018-03-28 12:03:02
Writing application : mkvmerge v21.0.0 (‘Tardigrades Will Inherit The Earth’) 64-bit
Writing library : libebml v1.3.5 + libmatroska v1.4.8

Video
ID : 1
Format : AVC
Format/Info : Advanced Video Codec
Format profile : High@L4
Format settings, CABAC : Yes
Format settings, ReFrames : 1 frame
Codec ID : V_MPEG4/ISO/AVC
Duration : 1 h 43 min
Bit rate : 2 360 kb/s
Width : 1 920 pixels
Height : 1 038 pixels
Display aspect ratio : 1.85:1
Frame rate mode : Constant
Frame rate : 23.976 (24000/1001) FPS
Color space : YUV
Chroma subsampling : 4:2:0
Bit depth : 8 bits
Scan type : Progressive
Bits/(Pixel*Frame) : 0.049
Stream size : 1.70 GiB (92%)
Default : Yes
Forced : No
Color range : Limited
Color primaries : BT.709
Transfer characteristics : BT.709
Matrix coefficients : BT.709

Audio
ID : 2
Format : AC-3
Format/Info : Audio Coding 3
Format settings, Endianness : Big
Codec ID : A_AC3
Duration : 1 h 43 min
Bit rate mode : Constant
Bit rate : 192 kb/s
Channel(s) : 2 channels
Channel positions : Front: L R
Sampling rate : 48.0 kHz
Frame rate : 31.250 FPS (1536 spf)
Bit depth : 16 bits
Compression mode : Lossy
Stream size : 142 MiB (8%)
Language : Thai
Service kind : Complete Main
Default : Yes
Forced : No



หมายเหตุ ทุกเว็บโหลดแทนกันได้ แต่ต้องเปลี่ยนชื่อให้เรียงกันด้วย

สำหรับสมาชิก VIP เท่านั้น!

[restrict …]

|——————————————————————|

|——————————————————————|

[/restrict]

%d bloggers like this: