[MINI-HD 1080P] 12 Strong (2018) 12 ตายไม่เป็น [พากย์ไทยโรง + อังกฤษ 5.1] [ซับอังกฤษ] [MKV] [ONE2UP]

[MINI-HD 1080P] 12 Strong (2018) 12 ตายไม่เป็น

12 Strong เรื่องราวของหน่วยรบพิเศษ 12 คน ที่ได้รับคัดเลือกจากรัฐบาลสหรัฐเพื่อปฏิบัติการลับสุดยอดในอัฟกานิสถานในช่วงหลังจากเกิดเหตุการณ์วินาศกรรมช็อคโลกที่นิวยอร์ค ในวันที่ 11 กันยายน ปี 2001 เพียงไม่กี่วัน โดยหน้าที่ของพวกเขาคือ ลักลอบเขาไปในดินแดนที่ปกครองโดย กลุ่มตาลีบันที่เชื่อกันว่าให้การสนับสนุนองค์การก่อการร้าย อัลเคดาห์ ที่นำโดยโอซามาบินลาเดน เพื่อประสานกับกลุ่มพันธมิตรทางเหนือในการทำสงครามภาคพื้นดินกับฝ่ายตาลีบัน ก่อนที่ รัฐบาลอเมริกาจะปฏิบัติการปูพรมทางอากาศต่อไป อย่างไรก็ตามด้วยสภาพภูมิศาสตร์ที่เต็มไปด้วยภูเขา พวกเขาจำต้องใช้ยุทธวีธีการรบแบบโบราณนั่นคือการใช้ม้าในการเดินทางผ่านเขตของศัตรู เพื่อยึดมาซาร์ อี ชารีฟ ซึ่งเคยเป็นฐานที่มั่นของกลุ่มพันธมิตรทางเหนือ คืนมาจากกลุ่มตาลีบันให้ได้ นี่จึงกลายเป็นที่มาของวีกรรมที่โลกลืมของเหล่านักรบบนหลังม้าทั้ง 12 คน

12.Strong.2018.1080p.WEB-DL.DD5.1.H264-THR.AC3.2.0[Load2up.com].mkv
Format : Matroska
Format version : Version 4 / Version 2
File size : 4.64 GiB
Duration : 2 h 9 min
Overall bit rate : 5 114 kb/s
Movie name : 12.Strong.2018.1080p.WEB-DL.DD5.1.H264
Encoded date : UTC 2018-04-04 00:57:49
Writing application : mkvmerge v21.0.0 (‘Tardigrades Will Inherit The Earth’) 32-bit
Writing library : libebml v1.3.5 + libmatroska v1.4.8
Cover : Yes
Attachments : small_cover.jpg / small_cover_land.jpg / cover.jpg / cover_land.jpg

Video
ID : 1
Format : AVC
Format/Info : Advanced Video Codec
Format profile : [email protected]
Format settings, CABAC : Yes
Format settings, ReFrames : 5 frames
Codec ID : V_MPEG4/ISO/AVC
Duration : 2 h 9 min
Bit rate : 4 536 kb/s
Width : 1 920 pixels
Height : 800 pixels
Display aspect ratio : 2.40:1
Frame rate mode : Constant
Frame rate : 23.976 (24000/1001) FPS
Color space : YUV
Chroma subsampling : 4:2:0
Bit depth : 8 bits
Scan type : Progressive
Bits/(Pixel*Frame) : 0.123
Stream size : 4.11 GiB (89%)
Title : 12.Strong.2018.1080p.WEB-DL.DD5.1.H264
Language : English
Default : Yes
Forced : No
Color range : Limited
Color primaries : BT.709
Transfer characteristics : BT.709
Matrix coefficients : BT.709

Audio #1
ID : 2
Format : AC-3
Format/Info : Audio Coding 3
Format settings, Endianness : Big
Codec ID : A_AC3
Duration : 2 h 9 min
Bit rate mode : Constant
Bit rate : 384 kb/s
Channel(s) : 6 channels
Channel positions : Front: L C R, Side: L R, LFE
Sampling rate : 48.0 kHz
Frame rate : 31.250 FPS (1536 spf)
Bit depth : 16 bits
Compression mode : Lossy
Stream size : 357 MiB (8%)
Title : 12.Strong.2018.1080p.WEB-DL.DD5.1.H264
Language : English
Service kind : Complete Main
Default : Yes
Forced : No

Audio #2
ID : 3
Format : AC-3
Format/Info : Audio Coding 3
Format settings, Endianness : Big
Codec ID : A_AC3
Duration : 2 h 9 min
Bit rate mode : Constant
Bit rate : 192 kb/s
Channel(s) : 2 channels
Channel positions : Front: L R
Sampling rate : 48.0 kHz
Frame rate : 31.250 FPS (1536 spf)
Bit depth : 16 bits
Compression mode : Lossy
Stream size : 178 MiB (4%)
Title : WW
Language : Thai
Service kind : Complete Main
Default : No
Forced : No

Text
ID : 4
Format : UTF-8
Codec ID : S_TEXT/UTF8
Codec ID/Info : UTF-8 Plain Text
Duration : 1 h 59 min
Bit rate : 59 b/s
Count of elements : 1634
Stream size : 51.6 KiB (0%)
Language : English
Default : Yes
Forced : No



หมายเหตุ ทุกเว็บโหลดแทนกันได้ แต่ต้องเปลี่ยนชื่อให้เรียงกันด้วย

สำหรับสมาชิก VIP เท่านั้น!

[restrict …]

|——————————————————————|

|——————————————————————|

[/restrict]

%d bloggers like this: