[MINI-HD 1080P] Sakurada Reset Part II (2017) เมืองมหัศจรรย์ คนเปลี่ยนเวลา ภาค 2 [พากย์ไทย] [MKV] [ONE2UP]

[MINI-HD 1080P] Sakurada Reset Part II (2017) เมืองมหัศจรรย์ คนเปลี่ยนเวลา ภาค 2

เมือง “ซากราดะ” เป็นเมืองที่เต็มไปด้วยคนที่มีพลังวิเศษ “มิโซระ ฮารุกิ” มีความสามารถย้อนเวลาและรีเซ็ทโลกได้สูงสุด 3 วัน เธอได้ร่วมมือกับ “อาซาอิ เค” เด็กหนุ่มที่สามารถจดจำได้ทุกอย่างแม้มิโซระจะรีเซ็ทโลกไปแล้ว ทั้งสองได้ร่วมมือกันเปลี่ยนแปลงโลก รวมไปถึงพวกเขาสามารถทำภารกิจในการเปลี่ยนชะตากรรมของเพื่อนในอดีตได้ แต่ ณ ตอนนี้ ความสามารถของพวกเขาต้องถูกท้าทายเมื่อพวกเขาต้องรับมือกับผู้ควบคุมพลังพิเศษที่มีเป้าหมายเพื่อที่จะทำลายเมืองๆ นี้ และ การกลับมาของ โซมะ สุมิเระ นักเรียนสาวที่ ฮารุกิ และ เค ได้ช่วยชีวิตมาแล้วนั้นมีจุดประสงค์เพื่ออะไร

Sagrada.Reset.Part.II.Mini.HD.TH[load2up.com].mkv
Format : Matroska
Format version : Version 4 / Version 2
File size : 2.38 GiB
Duration : 2 h 5 min
Overall bit rate : 2 719 kb/s
Encoded date : UTC 2018-03-28 11:57:54
Writing application : mkvmerge v21.0.0 (‘Tardigrades Will Inherit The Earth’) 64-bit
Writing library : libebml v1.3.5 + libmatroska v1.4.8

Video
ID : 1
Format : AVC
Format/Info : Advanced Video Codec
Format profile : [email protected]
Format settings, CABAC : Yes
Format settings, ReFrames : 1 frame
Codec ID : V_MPEG4/ISO/AVC
Duration : 2 h 5 min
Bit rate : 2 269 kb/s
Width : 1 920 pixels
Height : 1 038 pixels
Display aspect ratio : 1.85:1
Frame rate mode : Constant
Frame rate : 24.000 FPS
Color space : YUV
Chroma subsampling : 4:2:0
Bit depth : 8 bits
Scan type : Progressive
Bits/(Pixel*Frame) : 0.047
Stream size : 1.99 GiB (83%)
Default : Yes
Forced : No
Color range : Limited
Color primaries : BT.709
Transfer characteristics : BT.709
Matrix coefficients : BT.709

Audio
ID : 2
Format : AC-3
Format/Info : Audio Coding 3
Format settings, Endianness : Big
Codec ID : A_AC3
Duration : 2 h 5 min
Bit rate mode : Constant
Bit rate : 448 kb/s
Channel(s) : 2 channels
Channel positions : Front: L R
Sampling rate : 48.0 kHz
Frame rate : 31.250 FPS (1536 spf)
Bit depth : 16 bits
Compression mode : Lossy
Stream size : 402 MiB (16%)
Language : Thai
Service kind : Complete Main
Default : Yes
Forced : No



หมายเหตุ ทุกเว็บโหลดแทนกันได้ แต่ต้องเปลี่ยนชื่อให้เรียงกันด้วย

สำหรับสมาชิก VIP เท่านั้น!

[restrict …]

|——————————————————————|

|——————————————————————|

[/restrict]