[MINI-HD 1080P] Bad Boys For Life (2020) คู่หูขวางนรก ตลอดกาล [พากย์ไทย 2.0 + เสียงอังกฤษ 2.0] [เสียงไทย From True ID + บรรยายอังกฤษ] [MKV]

Bad Boys For Life (2020) คู่หูขวางนรก ตลอดกาล

Bad.Boys.for.Life.2020.1080p.THM.HDRip.x264[Load2up.com].mkv
Format : Matroska
Format version : Version 4
File size : 3.80 GiB
Duration : 2 h 2 min
Overall bit rate : 4 425 kb/s
Movie name : Bad.Boys.for.Life.2020.1080p.THM.HDRip.x264
Encoded date : UTC 2020-03-27 04:29:44
Writing application : mkvmerge v38.0.0 (‘The Silent Type’) 64-bit
Writing library : libebml v1.3.9 + libmatroska v1.5.2

Video
ID : 1
Format : AVC
Format/Info : Advanced Video Codec
Format profile : [email protected]
Format settings : CABAC / 4 Ref Frames
Format settings, CABAC : Yes
Format settings, ReFrames : 4 frames
Codec ID : V_MPEG4/ISO/AVC
Duration : 2 h 2 min
Bit rate : 3 781 kb/s
Width : 1 920 pixels
Height : 800 pixels
Display aspect ratio : 2.40:1
Frame rate mode : Constant
Frame rate : 29.970 (30000/1001) FPS
Color space : YUV
Chroma subsampling : 4:2:0
Bit depth : 8 bits
Scan type : Progressive
Bits/(Pixel*Frame) : 0.082
Stream size : 3.24 GiB (85%)
Title : Bad.Boys.for.Life.2020.1080p.THM.HDRip.x264
Language : English
Default : Yes
Forced : No
Color range : Limited
Color primaries : BT.709
Transfer characteristics : BT.709
Matrix coefficients : BT.709

Audio #1
ID : 2
Format : AC-3
Format/Info : Audio Coding 3
Commercial name : Dolby Digital
Codec ID : A_AC3
Duration : 2 h 2 min
Bit rate mode : Constant
Bit rate : 384 kb/s
Channel(s) : 2 channels
Channel layout : L R
Sampling rate : 48.0 kHz
Frame rate : 31.250 FPS (1536 SPF)
Bit depth : 16 bits
Compression mode : Lossy
Stream size : 337 MiB (9%)
Title : Thai Master From True ID @ 384 kb/s
Language : Thai
Service kind : Complete Main
Default : No
Forced : No

Audio #2
ID : 3
Format : AAC LC
Format/Info : Advanced Audio Codec Low Complexity
Codec ID : A_AAC-2
Duration : 2 h 2 min
Bit rate : 256 kb/s
Channel(s) : 2 channels
Channel layout : L R
Sampling rate : 48.0 kHz
Frame rate : 46.875 FPS (1024 SPF)
Compression mode : Lossy
Stream size : 225 MiB (6%)
Title : English 2.0 @ 256 kb/s
Language : English
Default : Yes
Forced : No

Text #1
ID : 4
Format : UTF-8
Codec ID : S_TEXT/UTF8
Codec ID/Info : UTF-8 Plain Text
Duration : 1 h 57 min
Bit rate : 61 b/s
Count of elements : 1765
Stream size : 52.9 KiB (0%)
Language : English
Default : Yes
Forced : No

Text #2
ID : 5
Format : UTF-8
Codec ID : S_TEXT/UTF8
Codec ID/Info : UTF-8 Plain Text
Duration : 2 h 1 min
Bit rate : 71 b/s
Count of elements : 2225
Stream size : 63.0 KiB (0%)
Title : SDH
Language : English
Default : No
Forced : No



หมายเหตุ ทุกเว็บโหลดแทนกันได้ แต่ต้องเปลี่ยนชื่อให้เรียงกันด้วย


สำหรับสมาชิก VIP เท่านั้น!

กรุณาเข้าสู่ระบบเพื่อดูลิ้ง!

***สำหรับคนที่มี VIP ของ Cornfile.com ไม่จำเป็นต้อง สมัครสมาชิกกับเว็บเรา***

User : cornfile
Password : cornfile

กรุณาเข้าสู่ระบบเพื่อทำรายการ

%d bloggers like this: