[MINI-HD 1080P] One Piece Stampede (2019) วันพีซ เดอะมูฟวี่ สแตมปีด [พากย์ไทย มาสเตอร์ ] [MKV]

One Piece Stampede (2019) วันพีซ เดอะมูฟวี่ สแตมปีด

One Piece Stampede (2019) [Load2up.com].mkv
Format : Matroska
Format version : Version 4
File size : 4.79 GiB
Duration : 1 h 41 min
Overall bit rate mode : Variable
Overall bit rate : 6 788 kb/s
Encoded date : UTC 2020-03-07 08:47:30
Writing application : mkvmerge v43.0.0 (‘The Quartermaster’) 64-bit
Writing library : libebml v1.3.10 + libmatroska v1.5.2
Attachments : MSYH.TTF / MSYHBD.TTF / tahoma.ttf

Video
ID : 1
Format : AVC
Format/Info : Advanced Video Codec
Format profile : [email protected]
Format settings : CABAC / 1 Ref Frames
Format settings, CABAC : Yes
Format settings, ReFrames : 1 frame
Codec ID : V_MPEG4/ISO/AVC
Duration : 1 h 41 min
Bit rate mode : Variable
Bit rate : 4 586 kb/s
Maximum bit rate : 14.1 Mb/s
Width : 1 920 pixels
Height : 1 080 pixels
Display aspect ratio : 16:9
Frame rate mode : Constant
Frame rate : 23.976 (23976/1000) FPS
Original frame rate : 23.976 (24000/1001) FPS
Color space : YUV
Chroma subsampling : 4:2:0
Bit depth : 8 bits
Scan type : Progressive
Bits/(Pixel*Frame) : 0.092
Stream size : 3.24 GiB (68%)
Language : Japanese
Default : Yes
Forced : No

Audio #1
ID : 2
Format : DTS
Format/Info : Digital Theater Systems
Codec ID : A_DTS
Duration : 1 h 41 min
Bit rate mode : Constant
Bit rate : 1 509 kb/s
Channel(s) : 6 channels
Channel layout : C L R Ls Rs LFE
Sampling rate : 48.0 kHz
Frame rate : 93.750 FPS (512 SPF)
Bit depth : 24 bits
Compression mode : Lossy
Stream size : 1.07 GiB (22%)
Title : DTS Japanese
Language : Japanese
Default : No
Forced : No

Audio #2
ID : 3
Format : AC-3
Format/Info : Audio Coding 3
Commercial name : Dolby Digital
Codec ID : A_AC3
Duration : 1 h 41 min
Bit rate mode : Constant
Bit rate : 640 kb/s
Channel(s) : 6 channels
Channel layout : L R C LFE Ls Rs
Sampling rate : 48.0 kHz
Frame rate : 31.250 FPS (1536 SPF)
Bit depth : 16 bits
Compression mode : Lossy
Stream size : 463 MiB (9%)
Title : AC-3 Thai
Language : Thai
Service kind : Complete Main
Default : Yes
Forced : No

Text #1
ID : 4
Format : ASS
Codec ID : S_TEXT/ASS
Codec ID/Info : Advanced Sub Station Alpha
Duration : 1 h 40 min
Bit rate : 183 b/s
Count of elements : 1466
Compression mode : Lossless
Stream size : 136 KiB (0%)
Title : Sub chs
Language : Chinese
Default : Yes
Forced : No

Text #2
ID : 5
Format : ASS
Codec ID : S_TEXT/ASS
Codec ID/Info : Advanced Sub Station Alpha
Duration : 1 h 40 min
Bit rate : 183 b/s
Count of elements : 1466
Compression mode : Lossless
Stream size : 136 KiB (0%)
Title : Sub cht
Language : Chinese
Default : No
Forced : No



หมายเหตุ ทุกเว็บโหลดแทนกันได้ แต่ต้องเปลี่ยนชื่อให้เรียงกันด้วย


สำหรับสมาชิก VIP เท่านั้น!

กรุณาเข้าสู่ระบบเพื่อดูลิ้ง!

***สำหรับคนที่มี VIP ของ Cornfile.com ไม่จำเป็นต้อง สมัครสมาชิกกับเว็บเรา***

User : cornfile
Password : cornfile

กรุณาเข้าสู่ระบบเพื่อทำรายการ

%d bloggers like this: