[MINI-HD 1080P] Penguin Highway (2018) วันหนึ่งฉันเจอเพนกวิน [ไทย 5.1+ญี่ปุ่น 5.1+ บรรยายไทย PGS] [MKV]

Penguin Highway (2018) วันหนึ่งฉันเจอเพนกวิน

Penguin.Highway(2018)1080p.THA.JAP.AC3.5.1.SUBThai.x264[Load2up.com].mkv
Format : Matroska
Format version : Version 4
File size : 3.69 GiB
Duration : 1 h 57 min
Overall bit rate : 4 509 kb/s
Movie name : Penguin.Highway(2018)1080p.THA.JAP.AC3.5.1.SUBThai.x264
Encoded date : UTC 2019-10-16 07:48:13
Writing application : mkvmerge v38.0.0 (‘The Silent Type’) 64-bit
Writing library : libebml v1.3.9 + libmatroska v1.5.2 / Lavf58.20.100

Video
ID : 1
Format : AVC
Format/Info : Advanced Video Codec
Format profile : [email protected]
Format settings : CABAC / 4 Ref Frames
Format settings, CABAC : Yes
Format settings, ReFrames : 4 frames
Codec ID : V_MPEG4/ISO/AVC
Duration : 1 h 57 min
Bit rate : 3 559 kb/s
Width : 1 920 pixels
Height : 872 pixels
Display aspect ratio : 2.2:1
Frame rate mode : Constant
Frame rate : 23.976 (24000/1001) FPS
Color space : YUV
Chroma subsampling : 4:2:0
Bit depth : 8 bits
Scan type : Progressive
Bits/(Pixel*Frame) : 0.089
Stream size : 2.91 GiB (79%)
Writing library : x264 core 157 r2935 545de2f
Default : Yes
Forced : No
Color range : Limited
Color primaries : BT.709
Transfer characteristics : BT.709
Matrix coefficients : BT.709

Audio #1
ID : 2
Format : AC-3
Format/Info : Audio Coding 3
Commercial name : Dolby Digital
Codec ID : A_AC3
Duration : 1 h 57 min
Bit rate mode : Constant
Bit rate : 448 kb/s
Channel(s) : 6 channels
Channel layout : L R C LFE Ls Rs
Sampling rate : 48.0 kHz
Frame rate : 31.250 FPS (1536 SPF)
Bit depth : 16 bits
Compression mode : Lossy
Delay relative to video : -5 ms
Stream size : 376 MiB (10%)
Title : AC3 5.1 448 kbps
Language : Japanese
Service kind : Complete Main
Default : No
Forced : No

Audio #2
ID : 3
Format : AC-3
Format/Info : Audio Coding 3
Commercial name : Dolby Digital
Codec ID : A_AC3
Duration : 1 h 57 min
Bit rate mode : Constant
Bit rate : 448 kb/s
Channel(s) : 6 channels
Channel layout : L R C LFE Ls Rs
Sampling rate : 48.0 kHz
Frame rate : 31.250 FPS (1536 SPF)
Bit depth : 16 bits
Compression mode : Lossy
Delay relative to video : -5 ms
Stream size : 375 MiB (10%)
Title : AC3 5.1 448 kbps
Language : Thai
Service kind : Complete Main
Default : Yes
Forced : No

Text #1
ID : 4
Format : VobSub
Muxing mode : zlib
Codec ID : S_VOBSUB
Codec ID/Info : Picture based subtitle format used on DVDs
Duration : 1 h 53 min
Bit rate : 9 859 b/s
Count of elements : 1422
Stream size : 7.98 MiB (0%)
Title : 1080p
Language : Thai
Default : Yes
Forced : No

Text #2
ID : 5
Format : VobSub
Muxing mode : zlib
Codec ID : S_VOBSUB
Codec ID/Info : Picture based subtitle format used on DVDs
Duration : 1 h 53 min
Bit rate : 9 859 b/s
Count of elements : 1422
Stream size : 7.98 MiB (0%)
Title : 1080p yellow
Language : Thai
Default : No
Forced : No

Text #3
ID : 6
Format : PGS
Muxing mode : zlib
Codec ID : S_HDMV/PGS
Codec ID/Info : Picture based subtitle format used on BDs/HD-DVDs
Duration : 1 h 53 min
Bit rate : 46.8 kb/s
Count of elements : 2844
Stream size : 37.9 MiB (1%)
Title : PGS 1080p
Language : Thai
Default : No
Forced : No

Text #4
ID : 7
Format : PGS
Muxing mode : zlib
Codec ID : S_HDMV/PGS
Codec ID/Info : Picture based subtitle format used on BDs/HD-DVDs
Duration : 1 h 53 min
Bit rate : 46.8 kb/s
Count of elements : 2844
Stream size : 37.9 MiB (1%)
Title : PGS 1080p yellow
Language : Thai
Default : No
Forced : No

Text #5
ID : 8
Format : UTF-8
Codec ID : S_TEXT/UTF8
Codec ID/Info : UTF-8 Plain Text
Duration : 1 h 52 min
Bit rate : 52 b/s
Count of elements : 1407
Stream size : 43.1 KiB (0%)
Title : English Text
Language : English
Default : No
Forced : No



หมายเหตุ ทุกเว็บโหลดแทนกันได้ แต่ต้องเปลี่ยนชื่อให้เรียงกันด้วย


สำหรับสมาชิก VIP เท่านั้น!

กรุณาเข้าสู่ระบบเพื่อดูลิ้ง!

***สำหรับคนที่มี VIP ของ Cornfile.com ไม่จำเป็นต้อง สมัครสมาชิกกับเว็บเรา***

User : cornfile
Password : cornfile

กรุณาเข้าสู่ระบบเพื่อทำรายการ

%d bloggers like this: