Home > Mini-HD > [MINI-HD 720P] IT (2017) อิท โผล่จากนรก [พากย์ไทยโรง + อังกฤษ 2.0] [บรรยายเกาหลี] [MKV] [ONE2UP]

[MINI-HD 720P] IT (2017) อิท โผล่จากนรก [พากย์ไทยโรง + อังกฤษ 2.0] [บรรยายเกาหลี] [MKV] [ONE2UP]

[MINI-HD 720P] IT (2017) อิท โผล่จากนรก

It ภาพยนตร์แนวทริลเลอร์สยองขวัญ ผลงานจากนิวไลน์ ซีเนม่า เรื่อง “IT” กำกับฯ โดย อันเดรส มูเชตติ (“Mama”) สร้างขึ้นจากนิยายที่ได้รับความนิยมอย่างสูง ผลงานของสตีเฟน คิง ในชื่อเดียวกันซึ่งสร้างความสยองขวัญให้กับผู้อ่านมานานหลายทศวรรษ เมื่อเด็กๆ เริ่มหายตัวไปจากเมืองเดอร์รี่ รัฐเมน เด็กๆ กลุ่มหนึ่งต้องเผชิญกับความกลัวครั้งใหญ่เมื่อพวกเขาต้องพบกับตัวตลกร้ายที่ชื่อว่าเพนนีไวซ์ ซึ่งมีประวัติฆาตกรรมและใช้ความรุนแรงมาอย่างโชกโชนเมื่อหลายศตวรรษก่อน

IT.2017.720p.KORSUB.HDRip.x264.AC-32.0.ThaiRong2.0[Load2up.com].mkv
Format : Matroska
Format version : Version 4 / Version 2
File size : 4.19 GiB
Duration : 2 h 12 min
Overall bit rate mode : Variable
Overall bit rate : 4 537 kb/s
Movie name : IT.2017.720p.KORSUB.HDRip.x264.AC-32.0.ThaiRong2.0
Encoded date : UTC 2017-10-28 21:45:05
Writing application : mkvmerge v9.9.0 (‘Pick Up’) 64bit
Writing library : libebml v1.3.4 + libmatroska v1.4.5
Cover : Yes
Attachments : cover.jpg

Video
ID : 1
Format : AVC
Format/Info : Advanced Video Codec
Format profile : [email protected]
Format settings, CABAC : Yes
Format settings, ReFrames : 3 frames
Codec ID : V_MPEG4/ISO/AVC
Duration : 2 h 12 min
Bit rate mode : Variable
Bit rate : 4 117 kb/s
Maximum bit rate : 14.0 Mb/s
Width : 1 280 pixels
Height : 536 pixels
Display aspect ratio : 2.40:1
Frame rate mode : Constant
Frame rate : 30.000 FPS
Color space : YUV
Chroma subsampling : 4:2:0
Bit depth : 8 bits
Scan type : Progressive
Bits/(Pixel*Frame) : 0.200
Stream size : 3.80 GiB (91%)
Title : IT.2017.720p.KORSUB.HDRip.x264.AC-32.0.ThaiRong2.0
Writing library : x264 core 148 r2744 b97ae06
Language : English
Default : Yes
Forced : No
Color range : Full
Color primaries : BT.709
Transfer characteristics : BT.709
Matrix coefficients : BT.709

Audio #1
ID : 2
Format : AC-3
Format/Info : Audio Coding 3
Format settings, Endianness : Big
Codec ID : A_AC3
Duration : 2 h 12 min
Bit rate mode : Constant
Bit rate : 192 kb/s
Channel(s) : 2 channels
Channel positions : Front: L R
Sampling rate : 48.0 kHz
Frame rate : 31.250 FPS (1536 spf)
Bit depth : 16 bits
Compression mode : Lossy
Stream size : 182 MiB (4%)
Title : ThaiRong 2.0 AC-3 By ~Mr.Captain~
Language : Thai
Service kind : Complete Main
Default : No
Forced : No

Audio #2
ID : 3
Format : AAC
Format/Info : Advanced Audio Codec
Format profile : LC
Codec ID : A_AAC
Duration : 2 h 12 min
Bit rate : 224 kb/s
Channel(s) : 2 channels
Channel positions : Front: L R
Sampling rate : 48.0 kHz
Frame rate : 46.875 FPS (1024 spf)
Compression mode : Lossy
Stream size : 212 MiB (5%)
Title : English 2.0 AAC
Language : English
Default : Yes
Forced : No



หมายเหตุ ทุกเว็บโหลดแทนกันได้ แต่ต้องเปลี่ยนชื่อให้เรียงกันด้วย

Cloud2free

สำหรับสมาชิก VIP เท่านั้น!

[restrict …]

|——————————————————————|

|——————————————————————|

[/restrict]

(Visited 1,291 times, 35 visits today)