[1080p Super HQ] Eraser Reborn (2022) อีเรเซอร์ รีบอร์น [เสียงอังกฤษ DTS-5.1 + พากย์ไทย Master] [บรรยาย: ไทย-อังกฤษ Master + ซับ PGS คมชัด]

Eraser Reborn (2022) อีเรเซอร์ รีบอร์น

MINI Super-HQ.Eraser.Reborn.(2022).1080p.BrRip.x264.DTS-5.1.THM[Load2up.com].mkv
Format : Matroska
Format version : Version 4
File size : 3.75 GiB
Duration : 1 h 42 min
Overall bit rate : 5 248 kb/s
Movie name : {MINI Super-HQ}_Eraser.Reborn.(2022).1080p.BrRip.x264.DTS-5.1.THM
Encoded date : UTC 2022-07-15 05:01:45
Writing application : mkvmerge v9.8.0 (‘Kuglblids’) 64bit
Writing library : libebml v1.3.4 + libmatroska v1.4.5

Video
ID : 1
Format : AVC
Format/Info : Advanced Video Codec
Format profile : Main@L4.1
Format settings : CABAC / 5 Ref Frames
Format settings, CABAC : Yes
Format settings, ReFrames : 5 frames
Codec ID : V_MPEG4/ISO/AVC
Duration : 1 h 42 min
Bit rate : 4 000 kb/s
Width : 1 920 pixels
Height : 804 pixels
Display aspect ratio : 2.40:1
Frame rate mode : Constant
Frame rate : 23.976 (24000/1001) FPS
Color space : YUV
Chroma subsampling : 4:2:0
Bit depth : 8 bits
Scan type : Progressive
Bits/(Pixel*Frame) : 0.108
Stream size : 2.86 GiB (76%)
Writing library : x264 core 157 r2935 545de2f
Language : English
Default : Yes
Forced : No
Color range : Limited
Color primaries : BT.709
Transfer characteristics : BT.709
Matrix coefficients : BT.709

Audio #1
ID : 2
Format : AC-3
Format/Info : Audio Coding 3
Commercial name : Dolby Digital
Codec ID : A_AC3
Duration : 1 h 42 min
Bit rate mode : Constant
Bit rate : 384 kb/s
Channel(s) : 2 channels
Channel layout : L R
Sampling rate : 48.0 kHz
Frame rate : 31.250 FPS (1536 SPF)
Bit depth : 16 bits
Compression mode : Lossy
Stream size : 281 MiB (7%)
Title : Thai DD Master
Language : Thai
Service kind : Complete Main
Default : Yes
Forced : Yes

Audio #2
ID : 3
Format : DTS
Format/Info : Digital Theater Systems
Codec ID : A_DTS
Duration : 1 h 42 min
Bit rate mode : Constant
Bit rate : 755 kb/s
Channel(s) : 6 channels
Channel layout : C L R Ls Rs LFE
Sampling rate : 48.0 kHz
Frame rate : 93.750 FPS (512 SPF)
Bit depth : 24 bits
Compression mode : Lossy
Stream size : 553 MiB (14%)
Title : {MINI Super-HQ}_Eraser.Reborn.(2022).1080p.BrRip.x264.DTS-5.1.THM
Language : English
Default : No
Forced : No

Text #1
ID : 4
Format : PGS
Codec ID : S_HDMV/PGS
Codec ID/Info : Picture based subtitle format used on BDs/HD-DVDs
Duration : 1 h 36 min
Bit rate : 32.1 kb/s
Count of elements : 2150
Stream size : 22.1 MiB (1%)
Title : Thai PGS
Language : Thai
Default : Yes
Forced : Yes

Text #2
ID : 5
Format : VobSub
Muxing mode : zlib
Codec ID : S_VOBSUB
Codec ID/Info : Picture based subtitle format used on DVDs
Duration : 1 h 36 min
Bit rate : 5 163 b/s
Count of elements : 1075
Stream size : 3.56 MiB (0%)
Title : Thai VobSub
Language : Thai
Default : No
Forced : No

Text #3
ID : 6
Format : PGS
Codec ID : S_HDMV/PGS
Codec ID/Info : Picture based subtitle format used on BDs/HD-DVDs
Duration : 1 h 36 min
Bit rate : 32.1 kb/s
Count of elements : 2150
Stream size : 22.1 MiB (1%)
Title : Thai PGS Out
Language : Thai
Default : No
Forced : No

Text #4
ID : 7
Format : VobSub
Codec ID : S_VOBSUB
Codec ID/Info : Picture based subtitle format used on DVDs
Duration : 1 h 36 min
Bit rate : 8 025 b/s
Count of elements : 1075
Stream size : 5.53 MiB (0%)
Title : Thai VobSub Out
Language : Thai
Default : No
Forced : No

Text #5
ID : 8
Format : VobSub
Codec ID : S_VOBSUB
Codec ID/Info : Picture based subtitle format used on DVDs
Duration : 1 h 36 min
Bit rate : 8 008 b/s
Count of elements : 1075
Stream size : 5.52 MiB (0%)
Title : Thai VobSub [Yellow] Language : Thai
Default : No
Forced : No

Text #6
ID : 9
Format : UTF-8
Codec ID : S_TEXT/UTF8
Codec ID/Info : UTF-8 Plain Text
Duration : 1 h 35 min
Bit rate : 41 b/s
Count of elements : 1105
Stream size : 29.3 KiB (0%)
Title : English SRT
Language : English
Default : No
Forced : No

Text #7
ID : 10
Format : PGS
Codec ID : S_HDMV/PGS
Codec ID/Info : Picture based subtitle format used on BDs/HD-DVDs
Duration : 1 h 37 min
Bit rate : 30.6 kb/s
Count of elements : 2682
Stream size : 21.4 MiB (1%)
Title : English PGS
Language : English
Default : No
Forced : No



หมายเหตุ ทุกเว็บโหลดแทนกันได้ แต่ต้องเปลี่ยนชื่อให้เรียงกันด้วย

สำหรับสมาชิก VIP เท่านั้น!

%d bloggers like this: