The Wall (2017) อำมหิตหลังกำแพง [1080P] [พากย์อังกฤษ 5.1] [ซับไทย + อังกฤษ] [MKV] [ONE2UP] [Filefenix]

The Wall (2017) อำมหิตหลังกำแพง

The Wall (2017) อำมหิตหลังกำแพง

ไอแซคและแมททิวส์ สองพลทหารซุ่มยิงในสงครามอิรัก ได้รับภารกิจให้สืบหาตัวมือซุ่มยิงในไซต์งานก่อสร้าง ทั้งสองใช้เวลาข้ามคืนซ่อนตัวในพุ่มไม้เพื่อค้นหา มือปืนที่อาจจะหลบซ่อนตัว แต่หลังจากเวลาผ่านไป ทั้งคู่เริ่มมั่นใจว่ามือซุ่มที่พวกเขาตามหาคงไม่อยู่แล้วจึงได้ออกมาเดินดูภายในไซต์ก่อสร้าง แต่ทว่าพวกเขากลับถูกมือซุ่มยิงเล่นงาน แมททิวส์ถูกยิงสาหัสนอนนิ่งอยู่ในที่โล่ง ส่วนไอแซคบาดเจ็บและวิ่งเข้าหาที่กำบังเป็นกำแพงเก่าๆที่มีโอกาสพังได้ทุกเมื่อ และตอนนี้ ไอแซคจะต้องใช้ไหวพริบทุกอย่างเพื่อที่จะเอาชีวิตรอดจากมือปืนที่มองไม่เห็นและสนามรบขนาดย่อมแห่งนี้

The.Wall.2017.1080p.WEB-DL.DD5.1.H264[Load2up.com].mkv
Format : Matroska
Format version : Version 4 / Version 2
File size : 3.10 GiB
Duration : 1 h 29 min
Overall bit rate : 4 944 kb/s
Movie name : The.Wall.2017.1080p.WEB-DL.DD5.1.H264
Encoded date : UTC 2010-02-22 21:41:31
Writing application : mkvmerge v5.9.0 (‘On The Loose’) built on Dec 9 2012 15:37:01
Writing library : libebml v1.3.0 + libmatroska v1.4.0
Cover : Yes

Video
ID : 1
Format : AVC
Format/Info : Advanced Video Codec
Format profile : High@L4
Format settings, CABAC : Yes
Format settings, ReFrames : 5 frames
Muxing mode : Header stripping
Codec ID : V_MPEG4/ISO/AVC
Duration : 1 h 29 min
Bit rate : 4 462 kb/s
Width : 1 920 pixels
Height : 792 pixels
Display aspect ratio : 2.40:1
Frame rate mode : Constant
Frame rate : 23.976 (24000/1001) FPS
Color space : YUV
Chroma subsampling : 4:2:0
Bit depth : 8 bits
Scan type : Progressive
Bits/(Pixel*Frame) : 0.122
Stream size : 2.80 GiB (90%)
Title : The.Wall.2017.1080p.WEB-DL.DD5.1.H264
Language : English
Default : Yes
Forced : No
Color range : Limited
Color primaries : BT.709
Transfer characteristics : BT.709
Matrix coefficients : BT.709

Audio
ID : 2
Format : AC-3
Format/Info : Audio Coding 3
Format settings, Endianness : Big
Muxing mode : Header stripping
Codec ID : A_AC3
Duration : 1 h 29 min
Bit rate mode : Constant
Bit rate : 384 kb/s
Channel(s) : 6 channels
Channel positions : Front: L C R, Side: L R, LFE
Sampling rate : 48.0 kHz
Frame rate : 31.250 FPS (1536 spf)
Bit depth : 16 bits
Compression mode : Lossy
Delay relative to video : -42 ms
Stream size : 247 MiB (8%)
Language : English
Service kind : Complete Main
Default : Yes
Forced : No

Text #1
ID : 3
Format : VobSub
Muxing mode : zlib
Codec ID : S_VOBSUB
Codec ID/Info : Picture based subtitle format used on DVDs
Title : Thai
Language : Thai
Default : Yes
Forced : No

Text #2
ID : 4
Format : UTF-8
Codec ID : S_TEXT/UTF8
Codec ID/Info : UTF-8 Plain Text
Title : Thai.srt
Language : Thai
Default : No
Forced : No

Text #3
ID : 5
Format : UTF-8
Codec ID : S_TEXT/UTF8
Codec ID/Info : UTF-8 Plain Text
Title : English
Language : English
Default : No
Forced : No



หมายเหตุ ทุกเว็บโหลดแทนกันได้ แต่ต้องเปลี่ยนชื่อให้เรียงกันด้วย

Cloud2free

สำหรับสมาชิก VIP เท่านั้น!

[restrict …]

|——————————————————————|

|——————————————————————|

[/restrict]

%d bloggers like this: