[Mini-HD 720p] First Love (2010) สิ่งเล็กๆที่เรียกว่ารัก [MASTER] [เสียงไทย 2.0] [บรรยายอังกฤษ] [MKV] [ONE2UP]

[Mini-HD 720p] First Love (2010) สิ่งเล็กๆที่เรียกว่ารัก [MASTER] [เสียงไทย 2.0] [บรรยายอังกฤษ] [MKV]

น้ำ (ใบเฟิร์น-พิมพ์ชนก) สาวน้อย ม.1 วัย 14 หน้าตาธรรมดาๆ กระเดียดไปทางไม่สวย หรือเรียกง่ายๆ ว่า ขี้เหร่นั่นแหละ แต่เธอดันไปแอบชอบ พี่โชน (มาริโอ เมาเร่อ) พี่ม.4 ที่หล่อ เท่ ที่สุดในโรงเรียน แล้วแถมยังใจดีอีกตะหาก ทำให้น้ำมีคู่แข่งเป็นสาวๆ ทั้ง ม.ต้นและ ม.ปลาย ที่มีแต่คนสวยๆ เต็มไปหมด แต่น้ำไม่ยอมแพ้ง่ายๆ เธอพยายามลุยทำทุกอย่าง สู้ทุกรูปแบบเพื่อที่จะ….เก่ง…และ…สวย แล้วเด่นขึ้นในโรงเรียนให้ได้ เพราะแอบหวังในใจเล็กๆ ว่าถ้าทำสำเร็จพี่โชนอาจจะหันมามองเธอซักครั้ง
น้ำทำตั้งแต่ เอามะขามเปียกมาขัดผิว สมัครเป็นนางรำแม้จะถูกคัดออก หัดเป่าคาริเน็ตแล้วสมัครเข้าวงโยธวาทิตเพื่อที่จะได้อยู่ใกล้ๆ พี่โชน ด้วยความช่วยเหลือของเพื่อนๆ แก๊งหน้าแย่ ในที่สุดน้ำก็ได้เป็นดรัมเมเยอร์มือหนึ่งของโรงเรียน จนตอนที่เรียนอยู่ม.3………เธอได้เป็นดาวของโรงเรียน จริงๆ!!!!! น้ำตกเป็นเป้าสายตาของหนุ่มๆ ทั้งโรงเรียน มีคนเข้ามาจีบเป็นสิบๆ คน ยกเว้นคนที่เธอรอคอยอยู่คนเดียว…..โชน
แล้วเรื่องราวความรักของน้ำจะเป็นอย่างไร โชนจะหันมาสนใจเธอมั้ย สุดท้ายแล้วความรัก ความฝัน กับความเป็นจริง จะได้พบกันเมื่อไหร่ เวลาคงเป็นคำตอบของทุกอย่างเอง

Complete name : [Mini-HD] First Love (2010) 720p DVDRip-x264.[Load2up.com].mkv
Format : Matroska
Format version : Version 2
File size : 3.04 GiB
Duration : 1 h 57 min
Overall bit rate : 3 700 kb/s
Writing application : Lavf52.52.0
Writing library : Lavf52.52.0

Video
ID : 1
Format : AVC
Format/Info : Advanced Video Codec
Format profile : Main@L3.1
Format settings, CABAC : Yes
Format settings, ReFrames : 3 frames
Codec ID : V_MPEG4/ISO/AVC
Duration : 1 h 57 min
Bit rate : 3 320 kb/s
Width : 1 280 pixels
Height : 720 pixels
Display aspect ratio : 16:9
Frame rate mode : Constant
Frame rate : 25.000 FPS
Color space : YUV
Chroma subsampling : 4:2:0
Bit depth : 8 bits
Scan type : Progressive
Bits/(Pixel*Frame) : 0.144
Stream size : 2.67 GiB (88%)
Writing library : x264 core 86 r1442M 781d300
Encoding settings : cabac=1 / ref=3 / deblock=1:0:0 / analyse=0x1:0 / me=hex / subme=7 / psy=1 / psy_rd=1.00:0.00 / mixed_ref=1 / me_range=16 / chroma_me=1 / trellis=0 / 8x8dct=0 / cqm=0 / deadzone=21,11 / fast_pskip=1 / chroma_qp_offset=-2 / threads=2 / sliced_threads=0 / nr=0 / decimate=1 / interlaced=0 / constrained_intra=0 / bframes=3 / b_pyramid=1 / b_adapt=0 / b_bias=0 / direct=3 / wpredb=1 / wpredp=0 / keyint=250 / keyint_min=25 / scenecut=40 / intra_refresh=0 / rc_lookahead=40 / rc=abr / mbtree=1 / bitrate=3320 / ratetol=0.2 / qcomp=0.60 / qpmin=10 / qpmax=51 / qpstep=4 / ip_ratio=1.41 / aq=1:1.00 / pulldown=0
Default : Yes
Forced : No

Audio
ID : 2
Format : AC-3
Format/Info : Audio Coding 3
Mode extension : CM (complete main)
Format settings, Endianness : Big
Codec ID : A_AC3
Duration : 1 h 57 min
Bit rate mode : Constant
Bit rate : 384 kb/s
Channel(s) : 2 channels
Channel positions : Front: L R
Sampling rate : 48.0 kHz
Frame rate : 31.250 FPS (1536 spf)
Bit depth : 16 bits
Compression mode : Lossy
Stream size : 323 MiB (10%)
Default : Yes
Forced : No



หมายเหตุ ทุกเว็บโหลดแทนกันได้ แต่ต้องเปลี่ยนชื่อให้เรียงกันด้วย



สำหรับสมาชิก VIP เท่านั้น!

%d bloggers like this: