[MINI-HD 720P] สยามสแควร์ (2017) Siam Square [พากย์ไทย 5.1] [MKV] [ONE2UP] [Filefenix]

[MINI-HD 720P] สยามสแควร์ (2017) Siam Square

สยามสแควร์ (2017) Siam Square เมื่อไม่กี่วันก่อนหน้า ระหว่างที่เมย์ กับจุ๊บเล็ก สองเพื่อนสนิทกำลังนั่งคุยถึงปัญหาเปิดอกที่ค้างคาใจมานานในห้องเรียนที่โรงเรียนกวดวิชาซีเครทคีย์ ซึ่งตั้งอยู่ในสยามสแควร์ ไฟทั้งตึกก็ดับสนิท…. มันไม่ใช่แค่ดับเฉพาะในตึกเรียนพิเศษ แต่ไฟดับมืดไปทั้งสยามสแควร์

ทันทีที่ไฟติด…เรื่องเล่าเกี่ยวกับ “วิญญาณเด็กสาวในสยามสแควร์” ก็ถูกขุดขึ้นมาเล่าอีกครั้ง เพราะเมื่อไฟดับ …ใครสักคนจะต้องตาย…เรื่องเล่าค่อยๆแพร่กระจายไปในอากาศ เมย์กับจุ๊บเล็ก และกลุ่มเพื่อนที่คุ้นเคยกันจากโรงเรียนกวดวิชา ก็ได้พบเจอ “ความไม่ปกติ” กันคนละอย่างสองอย่างที่ดูจะดำเนินไปตามอาถรรพ์ในเรื่องเล่าทุกประการ เด็กๆเหลือทางเลือกไม่มากนักระหว่างไม่สนใจกับเรื่องไร้สาระนั่นแล้วตั้งหน้าตั้งตาอ่านหนังสือเตรียมสอบเข้ามหาวิทยาลัย หรืออีกทางคือหันมาเผชิญหน้ากับความเป็นจริงอันน่าสะพรึงกลัวแล้วแก้ไขมัน ถึงแม้ผลลัพธ์นั้นอาจจะทำให้ไม่มีอะไรเหมือนเดิมอีกต่อไปกระทั่งมิตรภาพที่พวกเขาคิดว่าจะแน่นแฟ้นยาวนาน

Siam.Square.2017.DVDRip[LOad2up.com].mkv
Format : Matroska
Format version : Version 2
File size : 2.01 GiB
Duration : 1 h 47 min
Overall bit rate : 2 676 kb/s
Writing application : HandBrake 0.9.9
Writing library : libmkv 0.6.5

Video
ID : 1
Format : AVC
Format/Info : Advanced Video Codec
Format profile : [email protected]
Format settings, CABAC : Yes
Format settings, ReFrames : 4 frames
Codec ID : V_MPEG4/ISO/AVC
Duration : 1 h 47 min
Bit rate : 2 222 kb/s
Width : 720 pixels
Height : 404 pixels
Display aspect ratio : 16:9
Frame rate mode : Constant
Frame rate : 25.000 FPS
Color space : YUV
Chroma subsampling : 4:2:0
Bit depth : 8 bits
Scan type : Progressive
Bits/(Pixel*Frame) : 0.306
Stream size : 1.63 GiB (81%)
Writing library : x264 core 130 r2273 b3065e6
Language : English
Default : Yes
Forced : No
Color range : Limited
Color primaries : BT.601 PAL
Transfer characteristics : BT.709
Matrix coefficients : BT.601

Audio
ID : 2
Format : AC-3
Format/Info : Audio Coding 3
Format settings, Endianness : Big
Codec ID : A_AC3
Duration : 1 h 47 min
Bit rate mode : Constant
Bit rate : 448 kb/s
Channel(s) : 6 channels
Channel positions : Front: L C R, Side: L R, LFE
Sampling rate : 48.0 kHz
Frame rate : 31.250 FPS (1536 spf)
Bit depth : 16 bits
Compression mode : Lossy
Stream size : 345 MiB (17%)
Language : Thai
Service kind : Complete Main
Default : Yes
Forced : No



หมายเหตุ ทุกเว็บโหลดแทนกันได้ แต่ต้องเปลี่ยนชื่อให้เรียงกันด้วย

Cloud2free

สำหรับสมาชิก VIP เท่านั้น!

[restrict …]

|——————————————————————|

|——————————————————————|

[/restrict]

%d bloggers like this: