[MINI-HD 1080P] Unlocked (2017) ยุทธการล่าปลดล็อค [พากย์ไทยโรง 5.1 + รัสเซีย 5.1] [MKV] [ONE2UP] [Filefenix]

[MINI-HD 1080P] Unlocked (2017) ยุทธการล่าปลดล็อค

Unlocked เจ้าหน้าที่ของ CIA (นูมิ ราเพช) ได้รับมอบหมายให้ไปสืบหาความจริงกับปฏิบัติการที่จะทำให้ลอนดอนมีความเสี่ยงต่อการถูกโจมตีทางชีวภาพ งานนี้อาจไม่ได้แค่ต้องการความเสียหายและการลดทอนความเชื่อมั่น แต่มันอาจหมายถึงการได้เสียผลประโยชน์ของคนบางกลุ่มที่อยู่เบื้องหลัง และเมื่อการสืบหาความจริงของเธอลงลึกขึ้นเรื่อยๆ กลับพบว่าการเดินทางมาลอนดอนครั้งนี้ เหมือนถูกจัดวางไว้แล้ว ซึ่งอาจจะเป็นแผนการบางอย่างที่ต้องการให้เธอและพวกจบชีวิต เธอจะทำอย่างไรให้รอดพ้นจากแผนการสุดร้ายกาจและกลอุบายอันแยบยลที่ต้องเผชิญหน้ากับมัน

Unlocked.2016.1080p.WEB-DL.H264.AC3.ThaIRonG.5.1[LOad2up.com].mkv
Format : Matroska
Format version : Version 4 / Version 2
File size : 3.69 GiB
Duration : 1 h 38 min
Overall bit rate : Unlocked.2016.1080p.WEB-DL.H264.AC3.ThaIRonG.5.1[LOad2up.com] Encoded date : UTC 2017-07-25 18:05:13
Writing application : mkvmerge v14.0.0 (‘Flow’) 64bit
Writing library : libebml v1.3.4 + libmatroska v1.4.5

Video
ID : 1
Format : AVC
Format/Info : Advanced Video Codec
Format profile : [email protected]
Format settings, CABAC : Yes
Format settings, ReFrames : 5 frames
Codec ID : V_MPEG4/ISO/AVC
Duration : 1 h 38 min
Bit rate : 4 554 kb/s
Width : 1 912 pixels
Height : 792 pixels
Display aspect ratio : 2.40:1
Frame rate mode : Constant
Frame rate : 23.976 (24000/1001) FPS
Color space : YUV
Chroma subsampling : 4:2:0
Bit depth : 8 bits
Scan type : Progressive
Bits/(Pixel*Frame) : 0.125
Stream size : 3.12 GiB (85%)
Title : Unlocked.2016.1080p.WEB-DL.H264.AC3.ThaIRonG.5.1
Language : English
Default : Yes
Forced : No
Color range : Limited
Color primaries : BT.709
Transfer characteristics : BT.709
Matrix coefficients : BT.709

Audio #1
ID : 2
Format : AC-3
Format/Info : Audio Coding 3
Format settings, Endianness : Big
Codec ID : A_AC3
Duration : 1 h 38 min
Bit rate mode : Constant
Bit rate : 448 kb/s
Channel(s) : 6 channels
Channel positions : Front: L C R, Side: L R, LFE
Sampling rate : 48.0 kHz
Frame rate : 31.250 FPS (1536 spf)
Bit depth : 16 bits
Compression mode : Lossy
Stream size : 314 MiB (8%)
Title : ThaIRonG 5.1 By Captain
Language : Thai
Service kind : Complete Main
Default : No
Forced : No

Audio #2
ID : 3
Format : AC-3
Format/Info : Audio Coding 3
Format settings, Endianness : Big
Codec ID : A_AC3
Duration : 1 h 38 min
Bit rate mode : Constant
Bit rate : 384 kb/s
Channel(s) : 6 channels
Channel positions : Front: L C R, Side: L R, LFE
Sampling rate : 48.0 kHz
Frame rate : 31.250 FPS (1536 spf)
Bit depth : 16 bits
Compression mode : Lossy
Stream size : 269 MiB (7%)
Title : Russian 5.1 (iTunes)
Language : Russian
Service kind : Complete Main
Default : Yes



หมายเหตุ ทุกเว็บโหลดแทนกันได้ แต่ต้องเปลี่ยนชื่อให้เรียงกันด้วย

Cloud2free

สำหรับสมาชิก VIP เท่านั้น!

[restrict …]

|——————————————————————|

|——————————————————————|

[/restrict]

%d bloggers like this: