[MINI-HD 1080P] The Perfection (2019) มือหนึ่ง [เสียงอังกฤษ 5.1] [บรรยายไทย Master From Netflix + อังกฤษ + ซับไทย PGS คมชัด] [MKV]

[MINI-HD 1080P] The Perfection (2019) มือหนึ่ง

The.Perfection.2019.1080p.NF.WEB-DL.DDP5.1[Load2up.com].mkv
Format : Matroska
Format version : Version 4
File size : 3.98 GiB
Duration : 1 h 30 min
Overall bit rate : 6 290 kb/s
Movie name : The.Perfection.2019.1080p.NF.WEB-DL.DDP5.1.HEVC
Writing application : mkvmerge v8.3.0 (‘Over the Horizon’) 64bit
Writing library : libebml v1.3.1 + libmatroska v1.4.2

Video
ID : 1
Format : HEVC
Format/Info : High Efficiency Video Coding
Format profile : Main [email protected]@Main
Codec ID : V_MPEGH/ISO/HEVC
Duration : 1 h 30 min
Bit rate : 5 550 kb/s
Width : 1 920 pixels
Height : 1 080 pixels
Display aspect ratio : 16:9
Frame rate mode : Constant
Frame rate : 23.976 (24000/1001) FPS
Color space : YUV
Chroma subsampling : 4:2:0
Bit depth : 10 bits
Bits/(Pixel*Frame) : 0.112
Stream size : 3.51 GiB (88%)
Title : The.Perfection.2019.1080p.NF.WEB-DL.DDP5.1.HEVC
Default : Yes
Forced : No
Color range : Limited
Color primaries : BT.709
Transfer characteristics : BT.709
Matrix coefficients : BT.709

Audio
ID : 2
Format : E-AC-3
Format/Info : Enhanced AC-3
Commercial name : Dolby Digital Plus
Codec ID : A_EAC3
Duration : 1 h 30 min
Bit rate mode : Constant
Bit rate : 640 kb/s
Channel(s) : 6 channels
Channel layout : L R C LFE Ls Rs
Sampling rate : 48.0 kHz
Frame rate : 31.250 FPS (1536 SPF)
Compression mode : Lossy
Stream size : 415 MiB (10%)
Title : English 5.1
Language : English
Service kind : Complete Main
Default : Yes
Forced : No

Text #1
ID : 3
Format : VobSub
Muxing mode : zlib
Codec ID : S_VOBSUB
Codec ID/Info : Picture based subtitle format used on DVDs
Duration : 1 h 24 min
Bit rate : 1 709 b/s
Count of elements : 1009
Stream size : 1.03 MiB (0%)
Title : Thai 480P
Language : Thai
Default : No
Forced : No

Text #2
ID : 4
Format : VobSub
Muxing mode : zlib
Codec ID : S_VOBSUB
Codec ID/Info : Picture based subtitle format used on DVDs
Duration : 1 h 24 min
Bit rate : 3 062 b/s
Count of elements : 1009
Stream size : 1.85 MiB (0%)
Title : Thai 720P
Language : Thai
Default : No
Forced : No

Text #3
ID : 5
Format : VobSub
Muxing mode : zlib
Codec ID : S_VOBSUB
Codec ID/Info : Picture based subtitle format used on DVDs
Duration : 1 h 24 min
Bit rate : 4 999 b/s
Count of elements : 1009
Stream size : 3.02 MiB (0%)
Title : Thai 1080P
Language : Thai
Default : No
Forced : No

Text #4
ID : 6
Format : VobSub
Muxing mode : zlib
Codec ID : S_VOBSUB
Codec ID/Info : Picture based subtitle format used on DVDs
Duration : 1 h 24 min
Bit rate : 6 063 b/s
Count of elements : 1009
Stream size : 3.67 MiB (0%)
Title : Thai 1080P BIG
Language : Thai
Default : No
Forced : No

Text #5
ID : 7
Format : VobSub
Muxing mode : zlib
Codec ID : S_VOBSUB
Codec ID/Info : Picture based subtitle format used on DVDs
Duration : 1 h 24 min
Bit rate : 4 999 b/s
Count of elements : 1009
Stream size : 3.02 MiB (0%)
Title : Thai 1080P OUT
Language : Thai
Default : No
Forced : No

Text #6
ID : 8
Format : VobSub
Muxing mode : zlib
Codec ID : S_VOBSUB
Codec ID/Info : Picture based subtitle format used on DVDs
Duration : 1 h 24 min
Bit rate : 6 062 b/s
Count of elements : 1009
Stream size : 3.67 MiB (0%)
Title : Thai 1080P BIG[OUT] Language : Thai
Default : No
Forced : No

Text #7
ID : 9
Format : VobSub
Muxing mode : zlib
Codec ID : S_VOBSUB
Codec ID/Info : Picture based subtitle format used on DVDs
Duration : 1 h 24 min
Bit rate : 5 007 b/s
Count of elements : 1009
Stream size : 3.03 MiB (0%)
Title : Thai 1080P Yellow
Language : Thai
Default : No
Forced : No

Text #8
ID : 10
Format : UTF-8
Codec ID : S_TEXT/UTF8
Codec ID/Info : UTF-8 Plain Text
Duration : 1 h 23 min
Bit rate : 49 b/s
Count of elements : 1036
Stream size : 30.3 KiB (0%)
Title : English
Language : English
Default : No
Forced : No

Text #9
ID : 11
Format : PGS
Muxing mode : zlib
Codec ID : S_HDMV/PGS
Codec ID/Info : Picture based subtitle format used on BDs/HD-DVDs
Duration : 1 h 24 min
Bit rate : 17.1 kb/s
Count of elements : 2020
Stream size : 10.3 MiB (0%)
Title : Thai PGS
Language : Thai
Default : Yes
Forced : No



หมายเหตุ ทุกเว็บโหลดแทนกันได้ แต่ต้องเปลี่ยนชื่อให้เรียงกันด้วย

สำหรับสมาชิก VIP เท่านั้น!

[restrict …]

|——————————————————————|

|——————————————————————|

[/restrict]