[MINI-HD 1080P] I Am Mother (2019) ไอ แอม มาเธอร์ [เสียง:อังกฤษ 5.1 – บรรยาย:ไทย,อังกฤษ] [ซับไทย MASTER Netflix +ซับ PGS] [MKV]

[MINI-HD 1080P] I Am Mother (2019) ไอ แอม มาเธอร์

I.Am.Mother.2019.1080p.NF.WEB-DL.DDP5.1.x264[Load2up.com].mkv
Format : Matroska
Format version : Version 4
File size : 5.12 GiB
Duration : 1 h 53 min
Overall bit rate mode : Variable
Overall bit rate : 6 459 kb/s
Movie name : I.Am.Mother.2019.1080p.NF.WEB-DL.DDP5.1.x264
Encoded date : UTC 2019-07-12 02:32:21
Writing application : mkvmerge v8.3.0 (‘Over the Horizon’) 64bit
Writing library : libebml v1.3.1 + libmatroska v1.4.2

Video
ID : 1
Format : AVC
Format/Info : Advanced Video Codec
Format profile : [email protected]
Format settings : CABAC / 3 Ref Frames
Format settings, CABAC : Yes
Format settings, ReFrames : 3 frames
Codec ID : V_MPEG4/ISO/AVC
Duration : 1 h 53 min
Bit rate mode : Variable
Bit rate : 5 800 kb/s
Maximum bit rate : 8 700 kb/s
Width : 1 920 pixels
Height : 1 080 pixels
Display aspect ratio : 16:9
Frame rate mode : Constant
Frame rate : 24.000 FPS
Color space : YUV
Chroma subsampling : 4:2:0
Bit depth : 8 bits
Scan type : Progressive
Bits/(Pixel*Frame) : 0.117
Stream size : 4.56 GiB (89%)
Title : I.Am.Mother.2019.1080p.NF.WEB-DL.DDP5.1.x264
Writing library : x264 core 148 r2715 7e75228
Default : Yes
Forced : No

Audio
ID : 2
Format : E-AC-3
Format/Info : Enhanced AC-3
Commercial name : Dolby Digital Plus
Codec ID : A_EAC3
Duration : 1 h 53 min
Bit rate mode : Constant
Bit rate : 640 kb/s
Channel(s) : 6 channels
Channel layout : L R C LFE Ls Rs
Sampling rate : 48.0 kHz
Frame rate : 31.250 FPS (1536 SPF)
Compression mode : Lossy
Stream size : 520 MiB (10%)
Title : English 5.1
Language : English
Service kind : Complete Main
Default : Yes
Forced : No

Text #1
ID : 3
Format : VobSub
Muxing mode : zlib
Codec ID : S_VOBSUB
Codec ID/Info : Picture based subtitle format used on DVDs
Duration : 1 h 46 min
Bit rate : 1 144 b/s
Count of elements : 898
Stream size : 891 KiB (0%)
Title : Thai 480P
Language : Thai
Default : No
Forced : No

Text #2
ID : 4
Format : VobSub
Muxing mode : zlib
Codec ID : S_VOBSUB
Codec ID/Info : Picture based subtitle format used on DVDs
Duration : 1 h 46 min
Bit rate : 2 039 b/s
Count of elements : 898
Stream size : 1.55 MiB (0%)
Title : Thai 720P
Language : Thai
Default : No
Forced : No

Text #3
ID : 5
Format : VobSub
Muxing mode : zlib
Codec ID : S_VOBSUB
Codec ID/Info : Picture based subtitle format used on DVDs
Duration : 1 h 46 min
Bit rate : 3 333 b/s
Count of elements : 898
Stream size : 2.53 MiB (0%)
Title : Thai 1080P
Language : Thai
Default : No
Forced : No

Text #4
ID : 6
Format : VobSub
Muxing mode : zlib
Codec ID : S_VOBSUB
Codec ID/Info : Picture based subtitle format used on DVDs
Duration : 1 h 46 min
Bit rate : 4 149 b/s
Count of elements : 898
Stream size : 3.15 MiB (0%)
Title : Thai 1080P BIG
Language : Thai
Default : No
Forced : No

Text #5
ID : 7
Format : VobSub
Muxing mode : zlib
Codec ID : S_VOBSUB
Codec ID/Info : Picture based subtitle format used on DVDs
Duration : 1 h 46 min
Bit rate : 3 333 b/s
Count of elements : 898
Stream size : 2.53 MiB (0%)
Title : Thai 1080P OUT
Language : Thai
Default : No
Forced : No

Text #6
ID : 8
Format : VobSub
Muxing mode : zlib
Codec ID : S_VOBSUB
Codec ID/Info : Picture based subtitle format used on DVDs
Duration : 1 h 46 min
Bit rate : 4 149 b/s
Count of elements : 898
Stream size : 3.15 MiB (0%)
Title : Thai 1080P BIG[OUT] Language : Thai
Default : No
Forced : No

Text #7
ID : 9
Format : VobSub
Muxing mode : zlib
Codec ID : S_VOBSUB
Codec ID/Info : Picture based subtitle format used on DVDs
Duration : 1 h 46 min
Bit rate : 3 339 b/s
Count of elements : 898
Stream size : 2.54 MiB (0%)
Title : Thai 1080P Yellow
Language : Thai
Default : No
Forced : No

Text #8
ID : 10
Format : UTF-8
Codec ID : S_TEXT/UTF8
Codec ID/Info : UTF-8 Plain Text
Duration : 1 h 42 min
Bit rate : 36 b/s
Count of elements : 912
Stream size : 27.7 KiB (0%)
Title : English
Language : English
Default : No
Forced : No

Text #9
ID : 11
Format : PGS
Muxing mode : zlib
Codec ID : S_HDMV/PGS
Codec ID/Info : Picture based subtitle format used on BDs/HD-DVDs
Duration : 1 h 46 min
Bit rate : 11.4 kb/s
Count of elements : 1798
Stream size : 8.67 MiB (0%)
Title : Thai PGS
Language : Thai
Default : Yes
Forced : No

Text #10
ID : 12
Format : PGS
Muxing mode : zlib
Codec ID : S_HDMV/PGS
Codec ID/Info : Picture based subtitle format used on BDs/HD-DVDs
Duration : 1 h 46 min
Bit rate : 14.4 kb/s
Count of elements : 1798
Stream size : 11.0 MiB (0%)
Title : Thai PGS BIG
Language : Thai
Default : No
Forced : No

Text #11
ID : 13
Format : PGS
Muxing mode : zlib
Codec ID : S_HDMV/PGS
Codec ID/Info : Picture based subtitle format used on BDs/HD-DVDs
Duration : 1 h 46 min
Bit rate : 11.4 kb/s
Count of elements : 1798
Stream size : 8.67 MiB (0%)
Title : Thai PGS OUT
Language : Thai
Default : No
Forced : No

Text #12
ID : 14
Format : PGS
Muxing mode : zlib
Codec ID : S_HDMV/PGS
Codec ID/Info : Picture based subtitle format used on BDs/HD-DVDs
Duration : 1 h 46 min
Bit rate : 11.5 kb/s
Count of elements : 1798
Stream size : 8.73 MiB (0%)
Title : Thai PGS Yellow
Language : Thai
Default : No
Forced : No



หมายเหตุ ทุกเว็บโหลดแทนกันได้ แต่ต้องเปลี่ยนชื่อให้เรียงกันด้วย

สำหรับสมาชิก VIP เท่านั้น!

[restrict …]

|——————————————————————|

|——————————————————————|

[/restrict]

%d bloggers like this: