[MINI-HD 1080P] The Hurricane Heist (2018) ปล้นเร็วฝ่าโคตรพายุ [พากย์ไทยโรง 2.0 + เสียงอังกฤษ 5.1] [บรรยายอังกฤษ] [MKV] [ONE2UP]

[MINI-HD 1080P] The Hurricane Heist (2018) ปล้นเร็วฝ่าโคตรพายุ

แฮ็คเกอร์บุกโจรกรรมโรงกษาปณ์แห่งอเมริกา เพื่อหวังชิงเงินสดกว่า 600 ล้านเหรียญที่กำลังจะถูกทำลายในเวลาเดียวกับที่พายุเฮอริเคนระดับ 5 กำลังเข้าโจมตีและพังทุกอย่างในเมือง

The.Hurricane.Heist.2017.1080p.HDTV.x264.AC-3.THR2.0[Load2up.com].mkv
Format : Matroska
Format version : Version 4 / Version 2
File size : 3.21 GiB
Duration : 1 h 38 min
Overall bit rate : 4 668 kb/s
Movie name : [email protected]
Encoded date : UTC 2018-04-09 06:34:59
Writing application : mkvmerge v9.9.0 (‘Pick Up’) 64bit
Writing library : libebml v1.3.4 + libmatroska v1.4.5
Cover : Yes
Attachments : cover.jpg
Tool : PLUTONiUM RLS Encoder v14.6

Video
ID : 1
Format : AVC
Format/Info : Advanced Video Codec
Format profile : [email protected]
Format settings, CABAC : Yes
Format settings, ReFrames : 4 frames
Codec ID : V_MPEG4/ISO/AVC
Duration : 1 h 38 min
Bit rate : 4 089 kb/s
Width : 1 918 pixels
Height : 800 pixels
Display aspect ratio : 2.40:1
Frame rate mode : Constant
Frame rate : 25.000 FPS
Color space : YUV
Chroma subsampling : 4:2:0
Bit depth : 8 bits
Scan type : Progressive
Bits/(Pixel*Frame) : 0.107
Stream size : 2.81 GiB (88%)
Title : The.Hurricane.Heist.2017.1080p.HDTV.x264.AC-3.THR2.0
Writing library : x264 core 155 r2901 7d0ff22
Language : English
Default : Yes
Forced : No
Color range : Limited
Matrix coefficients : BT.709

Audio #1
ID : 2
Format : AC-3
Format/Info : Audio Coding 3
Format settings, Endianness : Big
Codec ID : A_AC3
Duration : 1 h 38 min
Bit rate mode : Constant
Bit rate : 192 kb/s
Channel(s) : 2 channels
Channel positions : Front: L R
Sampling rate : 48.0 kHz
Frame rate : 31.250 FPS (1536 spf)
Bit depth : 16 bits
Compression mode : Lossy
Stream size : 135 MiB (4%)
Title : THR 2.0
Language : Thai
Service kind : Complete Main
Default : Yes
Forced : Yes

Audio #2
ID : 3
Format : AC-3
Format/Info : Audio Coding 3
Format settings, Endianness : Big
Codec ID : A_AC3
Duration : 1 h 38 min
Bit rate mode : Constant
Bit rate : 384 kb/s
Channel(s) : 6 channels
Channel positions : Front: L C R, Side: L R, LFE
Sampling rate : 48.0 kHz
Frame rate : 31.250 FPS (1536 spf)
Bit depth : 16 bits
Compression mode : Lossy
Stream size : 270 MiB (8%)
Title : English 5.1
Language : English
Service kind : Complete Main
Default : No
Forced : No

Text
ID : 4
Format : UTF-8
Codec ID : S_TEXT/UTF8
Codec ID/Info : UTF-8 Plain Text
Duration : 1 h 29 min
Bit rate : 55 b/s
Count of elements : 1064
Stream size : 36.5 KiB (0%)
Language : English
Default : No
Forced : No



หมายเหตุ ทุกเว็บโหลดแทนกันได้ แต่ต้องเปลี่ยนชื่อให้เรียงกันด้วย

สำหรับสมาชิก VIP เท่านั้น!

[restrict …]

|——————————————————————|

|——————————————————————|

[/restrict]