[MINI-HD 1080P] Fifty Shades Freed (2018) ฟิฟตี้เชดส์ฟรีด [พากย์ไทยโรง 2.0 + เสียงอังกฤษ DD5.1] [MKV] [ONE2UP]

[MINI-HD 1080P] Fifty Shades Freed (2018) ฟิฟตี้เชดส์ฟรีด

ฟิฟตี้เชดส์ฟรีด เรื่องราวต่อจากภาคแรก คริสเตียน เกรย์ ผู้บอบช้ำจากความรัก พยายามตามง้อแอนัสเตเชีย สตีล ให้กลับมาคืนดีกับเขา ก่อนที่เธอจะให้โอกาสเขาอีกครั้ง แอนัสเตเชียก็ยื่นข้อตกลงใหม่ให้กับเขา จากนั้น ทั้งคู่เริ่มสร้างความไว้เนื้อเชื่อใจและความมั่นคงในชีวิต แต่ก็ต้องเผชิญกับอดีตของคริสเตียน เกรย์ ที่ตามมาทำลายความหวังที่จะสร้างอนาคตร่วมกัน

Fifty.Shades.Freed.2018.1080p.WEBRip.DD5.1.×264.AC-3.THR2.0[Load2up.com].mkv
Format : Matroska
Format version : Version 4 / Version 2
File size : 4.48 GiB
Duration : 1 h 45 min
Overall bit rate : 6 091 kb/s
Movie name : Fifty.Shades.Freed.2018.1080p.WEBRip.DD5.1.×[email protected]
Encoded date : UTC 2018-04-09 01:52:21
Writing application : mkvmerge v9.9.0 (‘Pick Up’) 64bit
Writing library : libebml v1.3.4 + libmatroska v1.4.5
Cover : Yes
Attachments : cover.jpg

Video
ID : 1
Format : AVC
Format/Info : Advanced Video Codec
Format profile : [email protected]
Format settings, CABAC : Yes
Format settings, ReFrames : 4 frames
Codec ID : V_MPEG4/ISO/AVC
Duration : 1 h 45 min
Bit rate : 5 500 kb/s
Width : 1 920 pixels
Height : 800 pixels
Display aspect ratio : 2.40:1
Frame rate mode : Constant
Frame rate : 29.970 (30000/1001) FPS
Color space : YUV
Chroma subsampling : 4:2:0
Bit depth : 8 bits
Scan type : Progressive
Bits/(Pixel*Frame) : 0.119
Stream size : 4.05 GiB (90%)
Title : Fifty.Shades.Freed.2018.1080p.WEBRip.DD5.1.×[email protected]
Writing library : x264 core 148 r2795M aaa9aa8
Encoding settings : cabac=1 / ref=4 / deblock=1:0:0 / analyse=0x3:0x113 / me=hex / subme=8 / psy=1 / psy_rd=1.00:0.00 / mixed_ref=1 / me_range=16 / chroma_me=1 / trellis=2 / 8x8dct=1 / cqm=0 / deadzone=21,11 / fast_pskip=1 / chroma_qp_offset=-2 / threads=40 / lookahead_threads=6 / sliced_threads=0 / nr=0 / decimate=1 / interlaced=0 / bluray_compat=0 / constrained_intra=0 / bframes=3 / b_pyramid=2 / b_adapt=1 / b_bias=0 / direct=3 / weightb=1 / open_gop=0 / weightp=2 / keyint=250 / keyint_min=25 / scenecut=40 / intra_refresh=0 / rc_lookahead=50 / rc=abr / mbtree=1 / bitrate=5500 / ratetol=1.0 / qcomp=0.60 / qpmin=0 / qpmax=69 / qpstep=4 / ip_ratio=1.40 / aq=1:1.00
Language : English
Default : Yes
Forced : No

Audio #1
ID : 2
Format : AC-3
Format/Info : Audio Coding 3
Format settings, Endianness : Big
Codec ID : A_AC3
Duration : 1 h 45 min
Bit rate mode : Constant
Bit rate : 192 kb/s
Channel(s) : 2 channels
Channel positions : Front: L R
Sampling rate : 48.0 kHz
Frame rate : 31.250 FPS (1536 spf)
Bit depth : 16 bits
Compression mode : Lossy
Stream size : 145 MiB (3%)
Title : THR 2.0 Modified By ~Mr.Captain~
Language : Thai
Service kind : Complete Main
Default : Yes
Forced : Yes

Audio #2
ID : 3
Format : AC-3
Format/Info : Audio Coding 3
Format settings, Endianness : Big
Codec ID : A_AC3
Duration : 1 h 45 min
Bit rate mode : Constant
Bit rate : 384 kb/s
Channel(s) : 6 channels
Channel positions : Front: L C R, Side: L R, LFE
Sampling rate : 48.0 kHz
Frame rate : 31.250 FPS (1536 spf)
Bit depth : 16 bits
Compression mode : Lossy
Delay relative to video : 62 ms
Stream size : 289 MiB (6%)
Title : English DD5.1
Language : English
Service kind : Complete Main
Default : No
Forced : No



หมายเหตุ ทุกเว็บโหลดแทนกันได้ แต่ต้องเปลี่ยนชื่อให้เรียงกันด้วย

สำหรับสมาชิก VIP เท่านั้น!

[restrict …]

|——————————————————————|

|——————————————————————|

[/restrict]