Home > Mini-HD > [MINI-HD 1080P] Slaughterhouse Rulez (2018) โรงเรียนสยอง อสูรใต้โลก [พากย์ไทยมาสเตอร์ 2.0 + เสียงอังกฤษ 5.1] [บรรยายไทย + อังกฤษ] [MKV]

[MINI-HD 1080P] Slaughterhouse Rulez (2018) โรงเรียนสยอง อสูรใต้โลก [พากย์ไทยมาสเตอร์ 2.0 + เสียงอังกฤษ 5.1] [บรรยายไทย + อังกฤษ] [MKV]

[MINI-HD 1080P] Slaughterhouse Rulez (2018) โรงเรียนสยอง อสูรใต้โลก

Slaughterhouse.Rulez.2018.1080p.BluRay.x264.AC3.THM2.0[Load2up.com].mkv
Format : Matroska
Format version : Version 4
File size : 2.28 GiB
Duration : 1 h 43 min
Overall bit rate : 3 154 kb/s
Encoded date : UTC 2019-06-22 15:36:35
Writing application : mkvmerge v25.0.0 (‘Prog Noir’) 64-bit
Writing library : libebml v1.3.6 + libmatroska v1.4.9

Video
ID : 1
Format : AVC
Format/Info : Advanced Video Codec
Format profile : [email protected]
Format settings : CABAC / 4 Ref Frames
Format settings, CABAC : Yes
Format settings, ReFrames : 4 frames
Codec ID : V_MPEG4/ISO/AVC
Duration : 1 h 43 min
Bit rate : 2 500 kb/s
Width : 1 920 pixels
Height : 804 pixels
Display aspect ratio : 2.40:1
Frame rate mode : Constant
Frame rate : 23.976 (24000/1001) FPS
Original frame rate : 23.976 (23976/1000) FPS
Color space : YUV
Chroma subsampling : 4:2:0
Bit depth : 8 bits
Scan type : Progressive
Bits/(Pixel*Frame) : 0.068
Stream size : 1.81 GiB (79%)
Title : Slaughterhouse.Rulez.2018.1080p.BluRay.x264.AC3.THM2.0
Writing library : x264 core 152 r2851M ba24899
Default : Yes
Forced : No

Audio #1
ID : 2
Format : AC-3
Format/Info : Audio Coding 3
Commercial name : Dolby Digital
Codec ID : A_AC3
Duration : 1 h 43 min
Bit rate mode : Constant
Bit rate : 192 kb/s
Channel(s) : 2 channels
Channel layout : L R
Sampling rate : 48.0 kHz
Frame rate : 31.250 FPS (1536 SPF)
Bit depth : 16 bits
Compression mode : Lossy
Stream size : 142 MiB (6%)
Title : Thai Master 2.0 @192 Kbps
Language : Thai
Service kind : Complete Main
Default : Yes
Forced : No

Audio #2
ID : 3
Format : AC-3
Format/Info : Audio Coding 3
Commercial name : Dolby Digital
Codec ID : A_AC3
Duration : 1 h 43 min
Bit rate mode : Constant
Bit rate : 448 kb/s
Channel(s) : 6 channels
Channel layout : L R C LFE Ls Rs
Sampling rate : 48.0 kHz
Frame rate : 31.250 FPS (1536 SPF)
Bit depth : 16 bits
Compression mode : Lossy
Stream size : 332 MiB (14%)
Title : English 5.1 @640 Kbps
Language : English
Service kind : Complete Main
Default : No
Forced : No

Text #1
ID : 4
Format : VobSub
Muxing mode : zlib
Codec ID : S_VOBSUB
Codec ID/Info : Picture based subtitle format used on DVDs
Duration : 1 h 40 min
Bit rate : 10.9 kb/s
Count of elements : 1577
Stream size : 7.82 MiB (0%)
Title : Thai
Language : Thai
Default : Yes
Forced : No

Text #2
ID : 5
Format : VobSub
Muxing mode : zlib
Codec ID : S_VOBSUB
Codec ID/Info : Picture based subtitle format used on DVDs
Duration : 1 h 37 min
Bit rate : 11.9 kb/s
Count of elements : 1448
Stream size : 8.27 MiB (0%)
Title : English
Language : English
Default : No
Forced : No



หมายเหตุ ทุกเว็บโหลดแทนกันได้ แต่ต้องเปลี่ยนชื่อให้เรียงกันด้วย

สำหรับสมาชิก VIP เท่านั้น!

[restrict …]

|——————————————————————|

|——————————————————————|

[/restrict]