Home > Mini-HD > [MINI-HD 1080P] Darkest Hour (2017) ชั่วโมงพลิกโลก [พากย์ไทยมาสเตอร์ 2.0 + เสียงอังกฤษ 5.1] [บรรยายไทย + อังกฤษ] [ซับไทย From BluRay Master] [MKV]

[MINI-HD 1080P] Darkest Hour (2017) ชั่วโมงพลิกโลก [พากย์ไทยมาสเตอร์ 2.0 + เสียงอังกฤษ 5.1] [บรรยายไทย + อังกฤษ] [ซับไทย From BluRay Master] [MKV]

[MINI-HD 1080P] Darkest Hour (2017) ชั่วโมงพลิกโลก

Darkest.Hour.2017.1080p.BluRay.x264.AC3.THM2.0[Load2up.com].mkv
Format : Matroska
Format version : Version 4
File size : 2.77 GiB
Duration : 2 h 5 min
Overall bit rate : 3 171 kb/s
Movie name : {MINI Super-HQ}_Darkest.Hour.2017.1080p.BrRip.DTS.x264
Encoded date : UTC 2019-07-04 08:52:27
Writing application : mkvmerge v25.0.0 (‘Prog Noir’) 64-bit
Writing library : libebml v1.3.6 + libmatroska v1.4.9

Video
ID : 1
Format : AVC
Format/Info : Advanced Video Codec
Format profile : [email protected]
Format settings : CABAC / 4 Ref Frames
Format settings, CABAC : Yes
Format settings, ReFrames : 4 frames
Codec ID : V_MPEG4/ISO/AVC
Duration : 2 h 4 min
Bit rate : 2 500 kb/s
Width : 1 920 pixels
Height : 1 040 pixels
Display aspect ratio : 1.85:1
Frame rate mode : Constant
Frame rate : 23.976 (24000/1001) FPS
Original frame rate : 23.976 (23976/1000) FPS
Color space : YUV
Chroma subsampling : 4:2:0
Bit depth : 8 bits
Scan type : Progressive
Bits/(Pixel*Frame) : 0.052
Stream size : 2.18 GiB (79%)
Title : Darkest.Hour.2017.1080p.BluRay.x264.AC3.THM2.0
Writing library : x264 core 152 r2851M ba24899
Default : Yes
Forced : No

Audio #1
ID : 2
Format : AC-3
Format/Info : Audio Coding 3
Commercial name : Dolby Digital
Codec ID : A_AC3
Duration : 2 h 4 min
Bit rate mode : Constant
Bit rate : 192 kb/s
Channel(s) : 2 channels
Channel layout : L R
Sampling rate : 48.0 kHz
Frame rate : 31.250 FPS (1536 SPF)
Bit depth : 16 bits
Compression mode : Lossy
Stream size : 171 MiB (6%)
Title : Thai Master 2.0 @192 Kbps
Language : Thai
Service kind : Complete Main
Default : Yes
Forced : No

Audio #2
ID : 3
Format : AC-3
Format/Info : Audio Coding 3
Commercial name : Dolby Digital
Codec ID : A_AC3
Duration : 2 h 5 min
Bit rate mode : Constant
Bit rate : 448 kb/s
Channel(s) : 6 channels
Channel layout : L R C LFE Ls Rs
Sampling rate : 48.0 kHz
Frame rate : 31.250 FPS (1536 SPF)
Bit depth : 16 bits
Compression mode : Lossy
Stream size : 401 MiB (14%)
Title : English 5.1 @448 Kbps
Language : English
Service kind : Complete Main
Default : No
Forced : No

Text #1
ID : 4
Format : VobSub
Muxing mode : zlib
Codec ID : S_VOBSUB
Codec ID/Info : Picture based subtitle format used on DVDs
Duration : 2 h 3 min
Bit rate : 2 226 b/s
Count of elements : 1674
Stream size : 1.97 MiB (0%)
Title : Thai 480p
Language : Thai
Default : No
Forced : No

Text #2
ID : 5
Format : VobSub
Muxing mode : zlib
Codec ID : S_VOBSUB
Codec ID/Info : Picture based subtitle format used on DVDs
Duration : 2 h 3 min
Bit rate : 4 346 b/s
Count of elements : 1674
Stream size : 3.85 MiB (0%)
Title : Thai 720p
Language : Thai
Default : No
Forced : No

Text #3
ID : 6
Format : VobSub
Muxing mode : zlib
Codec ID : S_VOBSUB
Codec ID/Info : Picture based subtitle format used on DVDs
Duration : 2 h 3 min
Bit rate : 7 739 b/s
Count of elements : 1674
Stream size : 6.85 MiB (0%)
Title : Thai 1080p
Language : Thai
Default : Yes
Forced : No

Text #4
ID : 7
Format : VobSub
Muxing mode : zlib
Codec ID : S_VOBSUB
Codec ID/Info : Picture based subtitle format used on DVDs
Duration : 2 h 3 min
Bit rate : 7 738 b/s
Count of elements : 1674
Stream size : 6.85 MiB (0%)
Title : Thai 1080p Yellow
Language : Thai
Default : No
Forced : No

Text #5
ID : 8
Format : PGS
Muxing mode : zlib
Codec ID : S_HDMV/PGS
Codec ID/Info : Picture based subtitle format used on BDs/HD-DVDs
Duration : 2 h 3 min
Bit rate : 31.3 kb/s
Count of elements : 3354
Stream size : 27.7 MiB (1%)
Title : Thai PGS BluRay Master
Language : Thai
Default : No
Forced : No

Text #6
ID : 9
Format : PGS
Muxing mode : zlib
Codec ID : S_HDMV/PGS
Codec ID/Info : Picture based subtitle format used on BDs/HD-DVDs
Duration : 1 h 57 min
Bit rate : 41.0 kb/s
Count of elements : 3487
Stream size : 34.4 MiB (1%)
Title : English
Language : English
Default : No
Forced : No



หมายเหตุ ทุกเว็บโหลดแทนกันได้ แต่ต้องเปลี่ยนชื่อให้เรียงกันด้วย

สำหรับสมาชิก VIP เท่านั้น!

[restrict …]

|——————————————————————|

|——————————————————————|

[/restrict]