[MINI-HD 1080P] Patriots Day (2016) วินาศกรรมปิดเมือง [พากย์ไทย 5.1+เสียงอังกฤษ DTS][บรรยายไทย+อังกฤษ] [MASTER] [MKV] [ONE2UP] [Filesfenix]

[MINI-HD 1080P] Patriots Day (2016) วินาศกรรมปิดเมือง

เรื่องราวว่าด้วยการวางระเบิดก่อการร้ายในงานวิ่งมาราธอนเมืองบอสตันเมื่อปี 2013 ที่ทำให้คนธรรมดาทั่วไปต้องกลายมาเป็นฮีโร่ด้วยวีรกรรมของพวกเขา หลังจากเหตุการณ์สะเทือนขวัญ จ่า ทอมมี่ ซอนเดอร์ส (มาร์ค วาห์ลเบิร์ค) รวบรวมความกล้าของตัวเองเข้าร่วมกับผู้รอดชีวิตคนอื่น ตามล่ามือวางระเบิดการแข่งขันบอสตันมาราธอน เพื่อหยุดยั้งวินาศการรมครั้งต่อไปให้ทันเวลา
การเรียงร้อยเรื่องราวของ เจ้าหน้าที่พิเศษ ริชาร์ด เดสลอว์รี่ส์(เควิน เบคอน) ผู้หมวด เอ็ด เดวิส ผู้กอง เอ็ด เดวิส (จอหน์ กู๊ดแมน) จ่า เจ็ฟฟรี่ พูกรีสซ์ (เจ.เค. ซิมมอนส์) และ นางพยาบาล แครอล ซอนเดอร์ส (มิเชล โมนาแกน) ภาพยนตร์บีบคั้นอารมณ์ ที่จะทำให้คุณลืมกระพริบตา กับการตามล่ามือระเบิดครั้งที่ซับซ้อนที่สุดในประวัติศาสตร์ ที่จะทำให้คุณได้ซึ้งถึงความกลมเกลียวของชาวเมืองบอสตัน

{MINI Super-HQ}_Patriots.Day.2016.1080p.BrRip.DTS.x264[Load2up.com].mkv
Format : Matroska
Format version : Version 4 / Version 2
File size : 4.14 GiB
Duration : 2 h 13 min
Overall bit rate : 4 452 kb/s
Movie name : {MINI Super-HQ}_Patriots.Day.2016.1080p.BrRip.DTS.x264
Encoded date : UTC 2010-02-22 21:41:31
Writing application : mkvmerge v5.9.0 (‘On The Loose’) built on Dec 9 2012 15:37:01
Writing library : libebml v1.3.0 + libmatroska v1.4.0

Video
ID : 1
Format : AVC
Format/Info : Advanced Video Codec
Format profile : [email protected]
Format settings, CABAC : Yes
Format settings, ReFrames : 4 frames
Codec ID : V_MPEG4/ISO/AVC
Duration : 2 h 13 min
Bit rate : 3 003 kb/s
Width : 1 920 pixels
Height : 800 pixels
Display aspect ratio : 2.40:1
Frame rate mode : Constant
Frame rate : 23.976 (24000/1001) FPS
Color space : YUV
Chroma subsampling : 4:2:0
Bit depth : 8 bits
Scan type : Progressive
Bits/(Pixel*Frame) : 0.082
Stream size : 2.94 GiB (71%)
Title : {MINI Super-HQ}_Patriots.Day.2016.1080p.BrRip.DTS.x264
Writing library : x264 core 130 r2273 b3065e6
Language : English
Default : Yes
Forced : No
Color range : Limited
Color primaries : BT.709
Transfer characteristics : BT.709
Matrix coefficients : BT.709

Audio #1
ID : 2
Format : AC-3
Format/Info : Audio Coding 3
Mode extension : CM (complete main)
Format settings, Endianness : Big
Codec ID : A_AC3
Duration : 2 h 13 min
Bit rate mode : Constant
Bit rate : 448 kb/s
Channel(s) : 6 channels
Channel positions : Front: L C R, Side: L R, LFE
Sampling rate : 48.0 kHz
Frame rate : 31.250 FPS (1536 spf)
Bit depth : 16 bits
Compression mode : Lossy
Delay relative to video : 150 ms
Stream size : 427 MiB (10%)
Title : Thai DVD Master
Language : Thai
Default : Yes
Forced : Yes

Audio #2
ID : 3
Format : DTS
Format/Info : Digital Theater Systems
Mode : 16
Format settings, Endianness : Big
Codec ID : A_DTS
Duration : 2 h 13 min
Bit rate mode : Constant
Bit rate : 755 kb/s
Channel(s) : 6 channels
Channel positions : Front: L C R, Side: L R, LFE
Sampling rate : 48.0 kHz
Frame rate : 93.750 FPS (512 spf)
Bit depth : 24 bits
Compression mode : Lossy
Stream size : 719 MiB (17%)
Title : English DTS
Language : English
Default : No
Forced : No

Text #1
ID : 4
Format : VobSub
Codec ID : S_VOBSUB
Codec ID/Info : Picture based subtitle format used on DVDs
Title : Thai 480p From DVD Master
Language : Thai
Default : No
Forced : No

Text #2
ID : 5
Format : VobSub
Codec ID : S_VOBSUB
Codec ID/Info : Picture based subtitle format used on DVDs
Title : Thai 1080p
Language : Thai
Default : Yes
Forced : Yes

Text #3
ID : 6
Format : VobSub
Codec ID : S_VOBSUB
Codec ID/Info : Picture based subtitle format used on DVDs
Title : Thai 1080p Yellow
Language : Thai
Default : No
Forced : No

Text #4
ID : 7
Format : VobSub
Codec ID : S_VOBSUB
Codec ID/Info : Picture based subtitle format used on DVDs
Title : Thai 1080p Out
Language : Thai
Default : No
Forced : No

Text #5
ID : 8
Format : VobSub
Codec ID : S_VOBSUB
Codec ID/Info : Picture based subtitle format used on DVDs
Title : Thai 1080p BIG
Language : Thai
Default : No
Forced : No

Text #6
ID : 9
Format : VobSub
Codec ID : S_VOBSUB
Codec ID/Info : Picture based subtitle format used on DVDs
Title : Thai 1080p Out [BIG] Language : Thai
Default : No
Forced : No

Text #7
ID : 10
Format : PGS
Codec ID : S_HDMV/PGS
Codec ID/Info : Picture based subtitle format used on BDs/HD-DVDs
Title : Thai PGS
Language : Thai
Default : No
Forced : No

Text #8
ID : 11
Format : PGS
Codec ID : S_HDMV/PGS
Codec ID/Info : Picture based subtitle format used on BDs/HD-DVDs
Title : Thai PGS Yellow
Language : Thai
Default : No
Forced : No

Text #9
ID : 12
Format : PGS
Codec ID : S_HDMV/PGS
Codec ID/Info : Picture based subtitle format used on BDs/HD-DVDs
Title : Thai PGS Out
Language : Thai
Default : No
Forced : No

Text #10
ID : 13
Format : PGS
Codec ID : S_HDMV/PGS
Codec ID/Info : Picture based subtitle format used on BDs/HD-DVDs
Title : English
Language : English
Default : No
Forced : No



หมายเหตุ ทุกเว็บโหลดแทนกันได้ แต่ต้องเปลี่ยนชื่อให้เรียงกันด้วย

สำหรับสมาชิก VIP เท่านั้น!

cornfile.com

กรุณาเข้าสู่ระบบเพื่อดูลิ้ง!

***สำหรับคนที่มี VIP ของ Cornfile.com ไม่จำเป็นต้อง สมัครสมาชิกกับเว็บเรา***

User : cornfile
Password : cornfile

กรุณาเข้าสู่ระบบเพื่อทำรายการ

%d bloggers like this: