[MINI-HD 1080P] The Invasion (2009) [พากย์ไทย5.1+อังกฤษDTS] [SubThai+Eng] [MASTER] [MKV] [ONE2UP] [Filefenix]

The Invasion (2009)

The Invasion นำเสนอเรื่องราวของความน่าจะเป็น ของการรุกรานจากมนุษย์ต่างดาว ที่เข้ามาสู่โลกมนุษย์โดยยานอวกาศ เมื่อยานของพวกเขาเข้าสู่ชั้นบรรยากาศของโลก มนุษย์ต่างดาวเป็นผู้ลักพาตัว – โดยใช้รูปแบบของสปอร์ – ได้กลายเป็นความเป็นไปไม่ได้ในที่จำกัด และชั่วข้ามคืน – เมื่อผู้คนหลับใหล – พวกเขาก็จะเริ่มเปลี่ยนไป โดยทั้งร่างกายและจิตใจของพวกเขา จะถูกควบคุมจากบางอย่างที่ไม่ใช่มนุษย์

ทางเดียวที่จะไม่ติดเชื้อการเปลี่ยนสภาพความเป็นมนุษย์ ก็คือการแสดงว่าเป็นคนไร้ความรู้สึก แครอล เบนเนล (นิโคล คิดแมน) จิตแพทย์สาว ซึ่งจากประสบการณ์ตรงกับผู้ป่วยรายหนึ่งของเธอ ได้กลายมาเป็นเหมือนเครื่องหมายเตือนว่า โลกของเธอกำลังจะเปลี่ยนไป และอีกไม่นาน จำนวนผู้คนเพิ่มขึ้นและเพิ่มขึ้น จะเปลี่ยนไปเป็นคนไร้ความรู้สึก ไม่มีสีสันโดยหลีกเลี่ยงไม่ได้ พวกเขาจะเป็นตัวนำเชื้อโรคสแนทเชอร์นี้ และเข้าไปควบคุมคนอื่นๆ อีกต่อๆ ไป เธอต้องผ่านขั้นตอนตั้งแต่เริ่มต้น จนมาถึงความเข้าใจว่ามันเกิดอะไรขึ้น จนไปถึงการช่วยชีวิตลูกชายของเธอ โอลิเวอร์ (แจ็คสัน บอนด์) จากตัวเชื้อโรคสแนทเชอร์ ที่ติดเชื้อและสร้างภูมิคุ้มกัน และอาจจะเป็นความหวังเดียวที่จะรักษาโรคนี้ได้ – ทำให้สแนทเชอร์ต้องการตัวเขา เป็นสาเหตุที่แครอลจะต้องฝืนตัวเอง ไม่ให้นอนหลับนานมากพอที่จะปกป้องเขาให้ปลอดภัย…

The Invasion 2009 BrRip 1080p[Load2up.com].mkv
Format : Matroska
Format version : Version 2
File size : 2.00 GiB
Duration : 1 h 39 min
Overall bit rate : 2 878 kb/s
Encoded date : UTC 2014-05-06 12:48:08
Writing application : mkvmerge v4.0.0 (‘The Stars were mine’) built on Jun 5 2010 17:44:09
Writing library : libebml v1.0.0 + libmatroska v1.0.0

Video
ID : 1
Format : AVC
Format/Info : Advanced Video Codec
Format profile : High@L4
Format settings, CABAC : Yes
Format settings, ReFrames : 3 frames
Codec ID : V_MPEG4/ISO/AVC
Duration : 1 h 39 min
Bit rate mode : Constant
Bit rate : 1 796 kb/s
Nominal bit rate : 2 000 kb/s / 2 000 kb/s
Width : 1 920 pixels
Height : 1 080 pixels
Display aspect ratio : 16:9
Frame rate mode : Constant
Frame rate : 25.000 FPS
Standard : NTSC
Color space : YUV
Chroma subsampling : 4:2:0
Bit depth : 8 bits
Scan type : Progressive
Bits/(Pixel*Frame) : 0.035
Stream size : 1.25 GiB (62%)
Writing library : x264 core 114
Default : Yes
Forced : No
Color range : Limited
Color primaries : BT.709
Transfer characteristics : BT.709
Matrix coefficients : BT.709

Audio #1
ID : 2
Format : AC-3
Format/Info : Audio Coding 3
Mode extension : CM (complete main)
Format settings, Endianness : Big
Codec ID : A_AC3
Duration : 1 h 39 min
Bit rate mode : Constant
Bit rate : 640 kb/s
Channel(s) : 6 channels
Channel positions : Front: L C R, Side: L R, LFE
Sampling rate : 48.0 kHz
Frame rate : 31.250 FPS (1536 spf)
Bit depth : 16 bits
Compression mode : Lossy
Stream size : 455 MiB (22%)
Language : Thai
Default : Yes
Forced : No

Audio #2
ID : 3
Format : AC-3
Format/Info : Audio Coding 3
Mode extension : CM (complete main)
Format settings, Endianness : Big
Codec ID : A_AC3
Duration : 1 h 39 min
Bit rate mode : Constant
Bit rate : 384 kb/s
Channel(s) : 6 channels
Channel positions : Front: L C R, Side: L R, LFE
Sampling rate : 48.0 kHz
Frame rate : 31.250 FPS (1536 spf)
Bit depth : 16 bits
Compression mode : Lossy
Stream size : 273 MiB (13%)
Language : English
Default : No
Forced : No

Text #1
ID : 4
Format : VobSub
Muxing mode : zlib
Codec ID : S_VOBSUB
Codec ID/Info : Picture based subtitle format used on DVDs
Language : Thai
Default : Yes
Forced : No

Text #2
ID : 5
Format : VobSub
Muxing mode : zlib
Codec ID : S_VOBSUB
Codec ID/Info : Picture based subtitle format used on DVDs
Language : English
Default : No
Forced : No



หมายเหตุ ทุกเว็บโหลดแทนกันได้ แต่ต้องเปลี่ยนชื่อให้เรียงกันด้วย

สำหรับสมาชิก VIP เท่านั้น!

%d bloggers like this: