[MINI-HD 1080P] Evil Dead (2013) ผีอมตะ [พากย์ไทย5.1 + อังกฤษ DTS] [บรรยายไทย+ อังกฤษ] [MASTER] [MKV] [ONE2UP]

[MINI-HD 1080P] Evil Dead (2013) ผีอมตะ

มื่อกระท่อมในป่าที่ห่างไกลผู้คนกลายเป็นจุดจบที่สยองขวัญเลือดโชกของกลุ่มวัยรุ่นที่ปลุกปีศาจโบราณให้ตื่นขึ้นมาอย่างไม่รู้อิโหน่อิเหน่เรื่องเริ่มต้นเมื่อตัวเอก ไมอา (เจน เลวี) หญิงสาวผู้มีบาดแผลในใจจากการสูญเสียคนที่เธอรักหันมาพึ่งยาเสพติดจนถลำลึก ขอให้เดวิด พี่ชายของเธอ (ไชโลห์ เฟอร์นันเดซ) แฟนสาวของเขา นาตาลี (อลิซาเบธ แบล็คมอร์) และเพื่อนสมัยเด็ก โอลิเวีย (เจสสิก้า ลูคัส) และ อีริค (ลู เทย์เลอร์ ปุชชี) มารวมตัวกันที่กระท่อมเก่าผุพังของครอบครัว เพื่อช่วยให้เธอก้าวพ้นจากสภาพที่เป็นอยู่ เมื่อไปถึงที่นั่นไมอาได้ทำลายยาเสพติดทั้งหมดที่เธอมี และสาบานว่าจะเลิกยาให้ได้ต่อหน้าทุกคน

แต่แล้วเรื่องไม่คาดฝันก็เกิดขึ้น เมื่อสำรวจรอบๆกระท่อมแล้วพวกเขาก็ต้องตกตะลึงที่พบว่ามีคนบุกรุกกระท่อมที่ถูกทิ้งร้างแห่งนี้ห้องใต้ดินถูกเปลี่ยนให้กลายเป็นแท่นบูชาน่าสยดสยอง ล้อมรอบไปด้วยสัตว์ที่ถูกพันร่างเป็นมัมมี่นับสิบๆตัว อีริคซึ่งหลงใหลในหนังสือโบราณยังค้นพบหนังสืออีกเล่มหนึ่งที่นั่นด้วย และด้วยความติดใจในเนื้อหาที่ลึกลับของมันเขาก็เลยอ่านข้อความในนั้นออกมาโดยไม่ทราบเลยว่าเขาได้ปล่อยสิ่งที่น่าสะพรึงกลัวออกมาแล้ว

Evil.Dead.2013.1080p.BluRay.x264.dts[Load2up.com].mkv
Format : Matroska
Format version : Version 4 / Version 2
File size : 3.00 GiB
Duration : 1 h 31 min
Overall bit rate : 4 701 kb/s
Movie name : Evil.Dead.2013.1080p.BluRay.x264.dts
Encoded date : UTC 2017-03-17 17:39:42
Writing application : mkvmerge v9.8.0 (‘Kuglblids’) 64bit
Writing library : libebml v1.3.4 + libmatroska v1.4.5

Video
ID : 1
Format : AVC
Format/Info : Advanced Video Codec
Format profile : [email protected]
Format settings, CABAC : Yes
Format settings, ReFrames : 4 frames
Codec ID : V_MPEG4/ISO/AVC
Duration : 1 h 31 min
Bit rate : 2 500 kb/s
Width : 1 920 pixels
Height : 800 pixels
Display aspect ratio : 2.40:1
Frame rate mode : Constant
Frame rate : 23.976 (24000/1001) FPS
Color space : YUV
Chroma subsampling : 4:2:0
Bit depth : 8 bits
Scan type : Progressive
Bits/(Pixel*Frame) : 0.068
Stream size : 1.59 GiB (53%)
Title : Evil.Dead.2013.1080p.BluRay.x264.dts
Writing library : x264 core 133 r2334 a3ac64b
Language : English
Default : Yes
Forced : No

Audio #1
ID : 2
Format : AC-3
Format/Info : Audio Coding 3
Mode extension : CM (complete main)
Format settings, Endianness : Big
Codec ID : A_AC3
Duration : 1 h 31 min
Bit rate mode : Constant
Bit rate : 640 kb/s
Channel(s) : 6 channels
Channel positions : Front: L C R, Side: L R, LFE
Sampling rate : 48.0 kHz
Frame rate : 31.250 FPS (1536 spf)
Bit depth : 16 bits
Compression mode : Lossy
Stream size : 418 MiB (14%)
Title : Thai 5.1 From BluRay Master
Language : Thai
Default : Yes
Forced : Yes

Audio #2
ID : 3
Format : DTS
Format/Info : Digital Theater Systems
Mode : 16
Format settings, Endianness : Big
Codec ID : A_DTS
Duration : 1 h 31 min
Bit rate mode : Constant
Bit rate : 1 509 kb/s
Channel(s) : 6 channels
Channel positions : Front: L C R, Side: L R, LFE
Sampling rate : 48.0 kHz
Frame rate : 93.750 FPS (512 spf)
Bit depth : 24 bits
Compression mode : Lossy
Stream size : 986 MiB (32%)
Title : English 5.1
Language : English
Default : No
Forced : No

Text #1
ID : 4
Format : VobSub
Muxing mode : zlib
Codec ID : S_VOBSUB
Codec ID/Info : Picture based subtitle format used on DVDs
Duration : 1 h 29 min
Bit rate : 926 b/s
Count of elements : 639
Stream size : 604 KiB (0%)
Title : Thai 480p From BluRay Master
Language : Thai
Default : No
Forced : No

Text #2
ID : 5
Format : VobSub
Muxing mode : zlib
Codec ID : S_VOBSUB
Codec ID/Info : Picture based subtitle format used on DVDs
Duration : 1 h 29 min
Bit rate : 1 719 b/s
Count of elements : 639
Stream size : 1.10 MiB (0%)
Title : Thai 720p AS
Language : Thai
Default : No
Forced : No

Text #3
ID : 6
Format : VobSub
Muxing mode : zlib
Codec ID : S_VOBSUB
Codec ID/Info : Picture based subtitle format used on DVDs
Duration : 1 h 29 min
Bit rate : 2 748 b/s
Count of elements : 639
Stream size : 1.75 MiB (0%)
Title : Thai 1080p AS
Language : Thai
Default : No
Forced : No

Text #4
ID : 7
Format : VobSub
Muxing mode : zlib
Codec ID : S_VOBSUB
Codec ID/Info : Picture based subtitle format used on DVDs
Duration : 1 h 29 min
Bit rate : 2 771 b/s
Count of elements : 639
Stream size : 1.77 MiB (0%)
Title : Thai 1080p FS Yellow
Language : Thai
Default : No
Forced : No

Text #5
ID : 8
Format : VobSub
Muxing mode : zlib
Codec ID : S_VOBSUB
Codec ID/Info : Picture based subtitle format used on DVDs
Duration : 1 h 29 min
Bit rate : 2 777 b/s
Count of elements : 639
Stream size : 1.77 MiB (0%)
Title : Thai 1080p FS
Language : Thai
Default : Yes
Forced : Yes

Text #6
ID : 9
Format : VobSub
Muxing mode : zlib
Codec ID : S_VOBSUB
Codec ID/Info : Picture based subtitle format used on DVDs
Duration : 1 h 29 min
Bit rate : 2 491 b/s
Count of elements : 639
Stream size : 1.59 MiB (0%)
Title : Thai 1080p TA
Language : Thai
Default : No
Forced : No

Text #7
ID : 10
Format : PGS
Muxing mode : zlib
Codec ID : S_HDMV/PGS
Codec ID/Info : Picture based subtitle format used on BDs/HD-DVDs
Duration : 1 h 29 min
Bit rate : 13.4 kb/s
Count of elements : 1278
Stream size : 8.55 MiB (0%)
Title : Thai PGS AS
Default : No
Forced : No

Text #8
ID : 11
Format : PGS
Muxing mode : zlib
Codec ID : S_HDMV/PGS
Codec ID/Info : Picture based subtitle format used on BDs/HD-DVDs
Duration : 1 h 29 min
Bit rate : 12.6 kb/s
Count of elements : 1278
Stream size : 8.06 MiB (0%)
Title : Thai PGS FS
Default : No
Forced : No

Text #9
ID : 12
Format : PGS
Muxing mode : zlib
Codec ID : S_HDMV/PGS
Codec ID/Info : Picture based subtitle format used on BDs/HD-DVDs
Duration : 1 h 29 min
Bit rate : 11.7 kb/s
Count of elements : 1278
Stream size : 7.46 MiB (0%)
Title : Thai PGS TA
Default : No
Forced : No

Text #10
ID : 13
Format : UTF-8
Codec ID : S_TEXT/UTF8
Codec ID/Info : UTF-8 Plain Text
Duration : 1 h 30 min
Bit rate : 30 b/s
Count of elements : 874
Stream size : 20.3 KiB (0%)
Title : Eng SRT
Language : English
Default : No
Forced : No



หมายเหตุ ทุกเว็บโหลดแทนกันได้ แต่ต้องเปลี่ยนชื่อให้เรียงกันด้วย

สำหรับสมาชิก VIP เท่านั้น!

[restrict …]

|——————————————————————|

|——————————————————————|

[/restrict]

%d bloggers like this: