[MINI-HD 1080P] Batman The Dark Knight Rises (2012) อัศวินรัตติกาลผงาด [พากย์ไทย+อังกฤษ] [SubThai+Eng] [MASTER] [MKV] [ONE2UP]

[MINI-HD 1080P] Batman The Dark Knight Rises (2012) อัศวินรัตติกาลผงาด

เป็นเวลาถึง 8 ปีแล้วที่แบทแมนหายตัวไปในยามค่ำคืน พลิกจากมาดฮีโร่กลายเป็นผู้หลบหนีอย่างรวดเร็ว จนเป็นที่เข้าใจว่ายอมรับผิดในการตายของอัยการเขตฮาร์วีย์ เดนท์ อัศวินรัตติกาลยอมสละทุกสิ่ง เพื่อสิ่งที่เขาและผู้บัญชาการกอร์ดอนต่างหวังว่าจะดียิ่งขึ้น ระหว่างที่มีการโกหกนี้อาชญากรที่ก่อเหตุในเมืองก็อธแธมถูกปราบปรามภายใต้กฏหมายป้องกันอาชญากรรมเดนท์แอ็ค แต่ทุกอย่างจะเปลี่ยนแปลงไปเมื่อมีแมวขโมยเจ้าเล่ห์เผยโฉมพร้อมกับปฏิบัติการลับ ที่น่ากลัวไปกว่านั้นคือไม่ว่าเบนจะมีวิวัฒนาการขนาดไหน วายร้ายที่สวมหน้ากากไว้ก็มีแผนการป่วนก็อธแธม ซึ่งบีบให้บรูซต้องออกจากการปลีกตัว แต่ถึงแม้เบนจะกลับสวมผ้าคลุมและหน้ากากอีกครั้ง กลับดูเหมือนเขาไม่เหมาะกับการเป็นแบทแมนอีกต่อไป

Batman The Dark Knight Rises[Load2up.com].mkv
Format : Matroska
Format version : Version 2
File size : 3.66 GiB
Duration : 2 h 44 min
Overall bit rate mode : Variable
Overall bit rate : 3 183 kb/s
Movie name : The.Dark.Knight.Rises.2012.1080p.Mini.BluRay.x264
Encoded date : UTC 2012-11-24 20:48:03
Writing application : mkvmerge v4.2.0 (‘No Talking’) built on Jul 28 2010 18:38:23
Writing library : libebml v1.0.0 + libmatroska v1.0.0

Video
ID : 1
Format : AVC
Format/Info : Advanced Video Codec
Format profile : High@L4
Format settings, CABAC : Yes
Format settings, ReFrames : 3 frames
Codec ID : V_MPEG4/ISO/AVC
Duration : 2 h 44 min
Bit rate mode : Variable
Bit rate : 2 060 kb/s
Maximum bit rate : 25.0 Mb/s
Width : 1 920 pixels
Height : 1 080 pixels
Display aspect ratio : 16:9
Frame rate mode : Constant
Frame rate : 23.976 (24000/1001) FPS
Color space : YUV
Chroma subsampling : 4:2:0
Bit depth : 8 bits
Scan type : Progressive
Bits/(Pixel*Frame) : 0.041
Stream size : 2.34 GiB (64%)
Title : The.Dark.Knight.Rises.2012.1080p.Mini.BluRay.x264.THM
Writing library : x264 core 125 r2208 d9d2288
Language : English
Default : Yes
Forced : No

Audio #1
ID : 2
Format : AC-3
Format/Info : Audio Coding 3
Mode extension : CM (complete main)
Format settings, Endianness : Big
Codec ID : A_AC3
Duration : 2 h 44 min
Bit rate mode : Constant
Bit rate : 448 kb/s
Channel(s) : 6 channels
Channel positions : Front: L C R, Side: L R, LFE
Sampling rate : 48.0 kHz
Frame rate : 31.250 FPS (1536 spf)
Bit depth : 16 bits
Compression mode : Lossy
Stream size : 527 MiB (14%)
Title : Thai BR Master
Language : Thai
Default : Yes
Forced : Yes

Audio #2
ID : 3
Format : AC-3
Format/Info : Audio Coding 3
Mode extension : CM (complete main)
Format settings, Endianness : Big
Codec ID : A_AC3
Duration : 2 h 44 min
Bit rate mode : Constant
Bit rate : 640 kb/s
Channel(s) : 6 channels
Channel positions : Front: L C R, Side: L R, LFE
Sampling rate : 48.0 kHz
Frame rate : 31.250 FPS (1536 spf)
Bit depth : 16 bits
Compression mode : Lossy
Stream size : 753 MiB (20%)
Title : English
Language : English
Default : No
Forced : No

Text #1
ID : 4
Format : VobSub
Codec ID : S_VOBSUB
Codec ID/Info : Picture based subtitle format used on DVDs
Title : Thai 480p BR Master
Language : Thai
Default : No
Forced : No

Text #2
ID : 5
Format : VobSub
Codec ID : S_VOBSUB
Codec ID/Info : Picture based subtitle format used on DVDs
Title : Thai 1080p BR Master
Language : English
Default : Yes
Forced : Yes

Text #3
ID : 6
Format : VobSub
Codec ID : S_VOBSUB
Codec ID/Info : Picture based subtitle format used on DVDs
Title : Thai 1080p BR Master Out&Low
Language : Thai
Default : No
Forced : No

Text #4
ID : 7
Format : VobSub
Codec ID : S_VOBSUB
Codec ID/Info : Picture based subtitle format used on DVDs
Title : Thai Angsana 1080p by PORSC
Language : Thai
Default : No
Forced : No

Text #5
ID : 8
Format : VobSub
Codec ID : S_VOBSUB
Codec ID/Info : Picture based subtitle format used on DVDs
Title : Thai Angsana 1080p Yellow by PORSC
Language : Thai
Default : No
Forced : No

Text #6
ID : 9
Format : UTF-8
Codec ID : S_TEXT/UTF8
Codec ID/Info : UTF-8 Plain Text
Title : English
Language : English
Default : No
Forced : No



หมายเหตุ ทุกเว็บโหลดแทนกันได้ แต่ต้องเปลี่ยนชื่อให้เรียงกันด้วย

สำหรับสมาชิก VIP เท่านั้น!

[restrict …]

|——————————————————————|

|——————————————————————|

[/restrict]

%d bloggers like this: