[MINI-HD 1080P] Christopher Robin (2018) คริสโตเฟอร์ โรบิน [พากย์ไทย พากย์อังกฤษ 5.1] [บรรยายไทย/บรรยายอังกฤษ] [MKV] [ONE2UP]

[MINI-HD 1080P] Christopher Robin (2018) คริสโตเฟอร์ โรบิน

Christopher.Robin.2018.1080.x264.WEB-DL[Load2up.com].mkv
Format : Matroska
Format version : Version 4 / Version 2
File size : 3.75 GiB
Duration : 1 h 44 min
Overall bit rate : 5 155 kb/s
Encoded date : UTC 2018-11-12 17:55:32
Writing application : mkvmerge v28.2.0 (‘The Awakening’) 64-bit
Writing library : libebml v1.3.6 + libmatroska v1.4.9

Video
ID : 2
Format : AVC
Format/Info : Advanced Video Codec
Format profile : [email protected]
Format settings, CABAC : Yes
Format settings, ReFrames : 5 frames
Codec ID : V_MPEG4/ISO/AVC
Duration : 1 h 44 min
Bit rate : 4 519 kb/s
Width : 1 920 pixels
Height : 804 pixels
Display aspect ratio : 2.40:1
Frame rate mode : Constant
Frame rate : 23.976 (23976/1000) FPS
Color space : YUV
Chroma subsampling : 4:2:0
Bit depth : 8 bits
Scan type : Progressive
Bits/(Pixel*Frame) : 0.122
Stream size : 3.29 GiB (88%)
Language : English
Default : Yes
Forced : No
Color range : Limited
Color primaries : BT.709
Transfer characteristics : BT.709
Matrix coefficients : BT.709

Audio #1
ID : 1
Format : AAC
Format/Info : Advanced Audio Codec
Format profile : LC
Codec ID : A_AAC
Duration : 1 h 43 min
Bit rate : 125 kb/s
Channel(s) : 2 channels
Channel positions : Front: L R
Sampling rate : 48.0 kHz
Frame rate : 46.875 FPS (1024 spf)
Compression mode : Lossy
Delay relative to video : -43 ms
Stream size : 93.1 MiB (2%)
Title : ENG 2.0
Language : English
Default : No
Forced : No

Audio #2
ID : 3
Format : AC-3
Format/Info : Audio Coding 3
Format settings, Endianness : Big
Codec ID : A_AC3
Duration : 1 h 43 min
Bit rate mode : Constant
Bit rate : 384 kb/s
Channel(s) : 6 channels
Channel positions : Front: L C R, Side: L R, LFE
Sampling rate : 48.0 kHz
Frame rate : 31.250 FPS (1536 spf)
Bit depth : 16 bits
Compression mode : Lossy
Delay relative to video : -43 ms
Stream size : 285 MiB (7%)
Title : ENG 5.1
Language : English
Service kind : Complete Main
Default : No
Forced : No

Audio #3
ID : 4
Format : AAC
Format/Info : Advanced Audio Codec
Format profile : LC
Codec ID : A_AAC
Duration : 1 h 43 min
Bit rate : 125 kb/s
Channel(s) : 2 channels
Channel positions : Front: L R
Sampling rate : 48.0 kHz
Frame rate : 46.875 FPS (1024 spf)
Compression mode : Lossy
Delay relative to video : -43 ms
Stream size : 93.0 MiB (2%)
Title : THA 2.0
Language : Thai
Default : Yes
Forced : No

Text #1
ID : 5
Format : UTF-8
Codec ID : S_TEXT/UTF8
Codec ID/Info : UTF-8 Plain Text
Duration : 1 h 39 min
Bit rate : 66 b/s
Count of elements : 1701
Stream size : 48.1 KiB (0%)
Title : Eng PGS
Language : English
Default : No
Forced : No

Text #2
ID : 6
Format : UTF-8
Codec ID : S_TEXT/UTF8
Codec ID/Info : UTF-8 Plain Text
Duration : 1 h 42 min
Bit rate : 143 b/s
Count of elements : 1737
Stream size : 108 KiB (0%)
Title : Tha PGS
Language : Thai
Default : Yes
Forced : No

Menu
00:00:00.000 : en:Opening Title
00:01:43.000 : en:Farewell Christopher Robin
00:07:35.000 : en:Don’t Forget Me
00:12:32.000 : en:Grown Up Job
00:23:47.000 : en:Reunited with Pooh
00:32:18.000 : en:A Sticky Mess
00:44:35.000 : en:Home Sweet Home!
00:54:39.000 : en:Finding Old Friends
00:59:13.000 : en:Heffalumps & Woozles
01:08:01.000 : en:Meeting Pooh and The Gang
01:18:46.000 : en:The Solution
01:29:59.000 : en:It’s Not Too Late
01:36:04.000 : en:Silly Old Bear
01:38:31.000 : en:End Credits



หมายเหตุ ทุกเว็บโหลดแทนกันได้ แต่ต้องเปลี่ยนชื่อให้เรียงกันด้วย

สำหรับสมาชิก VIP เท่านั้น!

[restrict …]

|——————————————————————|

|——————————————————————|

[/restrict]