[MINI-HD 1080P] Call Me by Your Name (2017) คอล มี บาย ยัวร์ เนม [พากย์อังกฤษ DTS] [ซับไทย + อังกฤษ] [MKV] [ONE2UP]

[MINI-HD 1080P] Call Me by Your Name (2017) คอล มี บาย ยัวร์ เนม

ฤดูร้อนปี 1983 ทางตอนเหนือของอิตาลี เอลิโอ รับบทโดย ทิโมธี ซาลาเมต (Timothee Chalamet) เด็กชายวัย 17 ที่ใช้ชีวิตอย่างเรื่อยเปื่อยในคฤหาสน์เก่าแก่กับครอบครัวโดยทั้งพ่อและแม่เป็นนักวิชาการ จนเมื่อ โอลิเวอร์ รับบทโดย อาร์มี่ แฮมเมอร์ (Armie Hammer) นักศึกษาหนุ่มชาวอเมริกันเดินทางมาช่วยงานวิจัยของพ่อเขา การปรากฏตัวของโอลิเวอร์ไม่เพียงทำให้เอลิโอรู้ว่าเขาช่างเป็นเด็กหนุ่มที่ไม่รู้เรื่องราวอะไร แต่ยังพาเขาไปยังสำรวจพื้นที่ใหม่ที่เขาไม่เคยรู้สึกมาก่อนอีกด้วย

Call.Me.By.Your.Name.2017.1080p.WEB-DL.DD5.1.H264[Load2up.com].mkv
Format : Matroska
Format version : Version 4 / Version 2
File size : 5.21 GiB
Duration : 2 h 12 min
Overall bit rate : 5 644 kb/s
Movie name : Call.Me.By.Your.Name.2017.1080p.WEB-DL.DD5.1.H264-jaideejung007
Encoded date : UTC 2018-03-04 13:35:31
Writing application : mkvmerge v21.0.0 (‘Tardigrades Will Inherit The Earth’) 64-bit
Writing library : libebml v1.3.5 + libmatroska v1.4.8

Video
ID : 1
Format : AVC
Format/Info : Advanced Video Codec
Format profile : [email protected]
Format settings, CABAC : Yes
Format settings, ReFrames : 4 frames
Codec ID : V_MPEG4/ISO/AVC
Duration : 2 h 12 min
Bit rate : 5 186 kb/s
Width : 1 920 pixels
Height : 1 032 pixels
Display aspect ratio : 1.85:1
Frame rate mode : Constant
Frame rate : 23.976 FPS
Color space : YUV
Chroma subsampling : 4:2:0
Bit depth : 8 bits
Scan type : Progressive
Bits/(Pixel*Frame) : 0.109
Stream size : 4.79 GiB (92%)
Title : Call.Me.By.Your.Name.2017.1080p.WEB-DL.DD5.1.H264-jaideejung007
Language : English
Default : Yes
Forced : No
Color range : Limited
Color primaries : BT.709
Transfer characteristics : BT.709
Matrix coefficients : BT.709

Audio
ID : 2
Format : AC-3
Format/Info : Audio Coding 3
Format settings, Endianness : Big
Codec ID : A_AC3
Duration : 2 h 11 min
Bit rate mode : Constant
Bit rate : 384 kb/s
Channel(s) : 6 channels
Channel positions : Front: L C R, Side: L R, LFE
Sampling rate : 48.0 kHz
Frame rate : 31.250 FPS (1536 spf)
Bit depth : 16 bits
Compression mode : Lossy
Stream size : 363 MiB (7%)
Title : Call.Me.By.Your.Name.2017.1080p.WEB-DL.DD5.1.H264-jaideejung007
Language : English
Service kind : Complete Main
Default : Yes
Forced : No

Text #1
ID : 3
Format : VobSub
Codec ID : S_VOBSUB
Codec ID/Info : Picture based subtitle format used on DVDs
Duration : 2 h 9 min
Bit rate : 1 589 b/s
Count of elements : 1019
Stream size : 1.47 MiB (0%)
Title : Thai 480p
Language : Thai
Default : No
Forced : No

Text #2
ID : 4
Format : VobSub
Codec ID : S_VOBSUB
Codec ID/Info : Picture based subtitle format used on DVDs
Duration : 2 h 9 min
Bit rate : 3 109 b/s
Count of elements : 1019
Stream size : 2.87 MiB (0%)
Title : Thai 720p
Language : Thai
Default : No
Forced : No

Text #3
ID : 5
Format : VobSub
Codec ID : S_VOBSUB
Codec ID/Info : Picture based subtitle format used on DVDs
Duration : 2 h 9 min
Bit rate : 5 557 b/s
Count of elements : 1019
Stream size : 5.14 MiB (0%)
Title : Thai 1080p
Language : Thai
Default : Yes
Forced : Yes

Text #4
ID : 6
Format : VobSub
Codec ID : S_VOBSUB
Codec ID/Info : Picture based subtitle format used on DVDs
Duration : 2 h 9 min
Bit rate : 5 546 b/s
Count of elements : 1019
Stream size : 5.13 MiB (0%)
Title : Thai 1080p Yellow
Language : Thai
Default : No
Forced : No

Text #5
ID : 7
Format : PGS
Codec ID : S_HDMV/PGS
Codec ID/Info : Picture based subtitle format used on BDs/HD-DVDs
Duration : 2 h 9 min
Bit rate : 21.8 kb/s
Count of elements : 2038
Stream size : 20.2 MiB (0%)
Title : Thai PGS
Language : Thai
Default : No
Forced : No

Text #6
ID : 8
Format : PGS
Codec ID : S_HDMV/PGS
Codec ID/Info : Picture based subtitle format used on BDs/HD-DVDs
Duration : 2 h 9 min
Bit rate : 21.8 kb/s
Count of elements : 2038
Stream size : 20.2 MiB (0%)
Title : Thai PGS OUT
Language : Thai
Default : No
Forced : No

Text #7
ID : 9
Format : PGS
Codec ID : S_HDMV/PGS
Codec ID/Info : Picture based subtitle format used on BDs/HD-DVDs
Duration : 2 h 9 min
Bit rate : 14.1 kb/s
Count of elements : 2034
Stream size : 13.0 MiB (0%)
Title : Thai Bluray Master
Language : Thai
Default : No
Forced : No

Text #8
ID : 10
Format : UTF-8
Codec ID : S_TEXT/UTF8
Codec ID/Info : UTF-8 Plain Text
Duration : 2 h 8 min
Bit rate : 31 b/s
Count of elements : 1096
Stream size : 29.9 KiB (0%)
Title : CC
Language : English
Default : No
Forced : No



หมายเหตุ ทุกเว็บโหลดแทนกันได้ แต่ต้องเปลี่ยนชื่อให้เรียงกันด้วย

สำหรับสมาชิก VIP เท่านั้น!

[restrict …]

|——————————————————————|

|——————————————————————|

[/restrict]