[MINI-HD 1080P] Brain On Fire (2017) เผชิญหน้า ท้าปาฏิหาริย์ [พากย์ไทย 5.1 + อังกฤษ 5.1] [บรรยายไทย + อังกฤษ] [MASTER] [MKV] [ONE2UP] [Filefenix]

[MINI-HD 1080P] Brain On Fire (2017) เผชิญหน้า ท้าปาฏิหาริย์

Brain On Fire ซูซานน่า คาฮาลาน สาวน้อยที่เพิ่งจบจากมหาลัยมาตามหาความฝันในนครนิวยอร์ก ด้วยการเป็นนักข่าวให้หนังสือพิมพ์นิวยอร์กโพสต์ เธอตกหลุมรักกับ สตีเฟ่น นักดนตรีหนุ่มสุดเท่ เมื่อหัวหน้าเธอมอบงานชิ้นสำคัญที่จะทำให้อาชีพเธอก้าวกระโดด เธอคงคิดว่าคงไม่มีอะไรดีไปกว่านี้อีกแล้วแต่แล้วทุกอย่างเริ่มกลับตาลปัตร ซูซานน่า ป่วยเป็นไข้หวัดที่ไม่ยอมหายซักที เธอเริ่มหลงๆ ลืมๆ เธอพลาดกำหนดส่งงานสำคัญ เธอได้ยินคนนินทาเธอลับหลังและที่แย่ไปกว่านั่นเธอมั่นใจว่า สตีเฟ่น แอบซุกกิ๊กไว้ เท่านั้นยังไม่พอร่างกายเธอเริ่มออกอาการประหลาดเช่นอาการชักอย่างรุนแรง เธอเริ่มมีอาการทางจิตทำให้ทีมแพทย์ต้องดูแลอย่างใกล้ชิด หลังจากเข้าออกโรงพยาบาลจนแทบจะเป็นบ้านหลังที่สอง ทีมแพทย์หาสิ่งผิดปกติไม่เจอ ซูซานน่า เริ่มใช้เวลาที่โรงพยาบาลนานขึ้น จากวันเป็นสัปดาห์ที่เธอต้องนอนอยู่เฉยๆ บนเตียง ร่างกายของเธอเริ่มเดินไม่ไหว พูดลำบาก กินอาหารไม่ได้ แต่หมอกลับบอกครอบครัวของเธอร่างกายเธอสมบูรณ์ดีร้อยเปอร์เซ็นต์ โรห์นา แม่ของเธอและ ทอม พ่อของเธอ เริ่มทนไม่ไหวที่ต้องมองดูลูกสาวกำลังจะจากไปโดยที่ทำอะไรเพื่อช่วยเธอไม่ได้เลย เมื่อร่างกาย ซูซานน่า กำลังจะยอมแพ้ ครอบครัวของเธอได้แต่หวังว่าจะมีใครซักที่สามารถไขโรคปริศนานี้ได้ ในที่สุดพวกเขาก็เจอแพทย์ที่พร้อมทุ่มเททุกอย่างเพื่อช่วยเยียวยาให้ ซูซานน่า หายจากโรคประหลาดนี้ให้กลับมาเป็นสาวน้อยสดใสเหมือนเดิมอีกครั้ง!!!

Brain.On.Fire.2017.1080p.WEB-DL.AC3.x264[Load2up.com].mkv
Format : Matroska
Format version : Version 4 / Version 2
File size : 3.41 GiB
Duration : 1 h 28 min
Overall bit rate : 5 494 kb/s
Movie name : Brain.On.Fire.2017.1080p.WEB-DL.AC3.x264
Encoded date : UTC 2010-02-22 21:41:31
Writing application : mkvmerge v5.9.0 (‘On The Loose’) built on Dec 9 2012 15:37:01
Writing library : libebml v1.3.0 + libmatroska v1.4.0

Video
ID : 1
Format : AVC
Format/Info : Advanced Video Codec
Format profile : High@L4
Format settings, CABAC : Yes
Format settings, ReFrames : 5 frames
Codec ID : V_MPEG4/ISO/AVC
Duration : 1 h 28 min
Bit rate : 4 553 kb/s
Width : 1 920 pixels
Height : 802 pixels
Display aspect ratio : 2.40:1
Frame rate mode : Constant
Frame rate : 23.976 FPS
Color space : YUV
Chroma subsampling : 4:2:0
Bit depth : 8 bits
Scan type : Progressive
Bits/(Pixel*Frame) : 0.123
Stream size : 2.83 GiB (83%)
Title : Brain.On.Fire.2017.1080p.WEB-DL.AC3.x264
Language : English
Default : Yes
Forced : No
Color range : Limited
Color primaries : BT.709
Transfer characteristics : BT.709
Matrix coefficients : BT.709

Audio #1
ID : 2
Format : AC-3
Format/Info : Audio Coding 3
Format settings, Endianness : Big
Codec ID : A_AC3
Duration : 1 h 28 min
Bit rate mode : Constant
Bit rate : 448 kb/s
Channel(s) : 6 channels
Channel positions : Front: L C R, Side: L R, LFE
Sampling rate : 48.0 kHz
Frame rate : 31.250 FPS (1536 spf)
Bit depth : 16 bits
Compression mode : Lossy
Stream size : 285 MiB (8%)
Title : Thai DVD Master
Language : Thai
Service kind : Complete Main
Default : Yes
Forced : Yes

Audio #2
ID : 3
Format : AC-3
Format/Info : Audio Coding 3
Format settings, Endianness : Big
Codec ID : A_AC3
Duration : 1 h 28 min
Bit rate mode : Constant
Bit rate : 384 kb/s
Channel(s) : 6 channels
Channel positions : Front: L C R, Side: L R, LFE
Sampling rate : 48.0 kHz
Frame rate : 31.250 FPS (1536 spf)
Bit depth : 16 bits
Compression mode : Lossy
Stream size : 244 MiB (7%)
Title : English
Language : English
Service kind : Complete Main
Default : No
Forced : No

Text #1
ID : 4
Format : VobSub
Codec ID : S_VOBSUB
Codec ID/Info : Picture based subtitle format used on DVDs
Title : Thai 480p DVD Master
Language : Thai
Default : No
Forced : No

Text #2
ID : 5
Format : VobSub
Codec ID : S_VOBSUB
Codec ID/Info : Picture based subtitle format used on DVDs
Title : Thai 1080p
Language : Thai
Default : Yes
Forced : Yes

Text #3
ID : 6
Format : VobSub
Codec ID : S_VOBSUB
Codec ID/Info : Picture based subtitle format used on DVDs
Title : Thai 1080p Yellow
Language : Thai
Default : No
Forced : No

Text #4
ID : 7
Format : VobSub
Codec ID : S_VOBSUB
Codec ID/Info : Picture based subtitle format used on DVDs
Title : Thai 1080p Out
Language : Thai
Default : No
Forced : No

Text #5
ID : 8
Format : PGS
Codec ID : S_HDMV/PGS
Codec ID/Info : Picture based subtitle format used on BDs/HD-DVDs
Title : Thai PGS
Language : Thai
Default : No
Forced : No

Text #6
ID : 9
Format : UTF-8
Codec ID : S_TEXT/UTF8
Codec ID/Info : UTF-8 Plain Text
Title : English
Language : English
Default : No
Forced : No



หมายเหตุ ทุกเว็บโหลดแทนกันได้ แต่ต้องเปลี่ยนชื่อให้เรียงกันด้วย

Cloud2free

สำหรับสมาชิก VIP เท่านั้น!

[restrict …]

|——————————————————————|

|——————————————————————|

[/restrict]

%d bloggers like this: