[MINI-HD 1080P] A Beautiful Day in the Neighborhood (2019) เรื่องเล่าวันฟ้าสวย [พากย์ไทย มาสเตอร์ + เสียงอังกฤษ DTS] [บรรยายไทย + อังกฤษ] [เสียงไทย Master ซับไทย Master Blu-Ray +ซับ PGS คมชัด] [MASTER] [MKV]

A Beautiful Day in the Neighborhood (2019) เรื่องเล่าวันฟ้าสวย

{MINI Super-HQ}_A.Beautiful.Day.in.the.Neighborhood.2019.1080p.BrRip.DTS.x264.Load2up.com.mkv
Format : Matroska
Format version : Version 4
File size : 3.71 GiB
Duration : 1 h 48 min
Overall bit rate : 4 883 kb/s
Movie name : {MINI Super-HQ}_A.Beautiful.Day.in.the.Neighborhood.2019.1080p.BrRip.DTS.x264
Encoded date : UTC 2020-04-17 17:38:51
Writing application : mkvmerge v9.8.0 (‘Kuglblids’) 64bit
Writing library : libebml v1.3.4 + libmatroska v1.4.5

Video
ID : 1
Format : AVC
Format/Info : Advanced Video Codec
Format profile : Hi[email protected]
Format settings : CABAC / 4 Ref Frames
Format settings, CABAC : Yes
Format settings, ReFrames : 4 frames
Codec ID : V_MPEG4/ISO/AVC
Duration : 1 h 48 min
Bit rate : 3 597 kb/s
Width : 1 920 pixels
Height : 1 038 pixels
Display aspect ratio : 1.85:1
Frame rate mode : Constant
Frame rate : 23.976 (24000/1001) FPS
Color space : YUV
Chroma subsampling : 4:2:0
Bit depth : 8 bits
Scan type : Progressive
Bits/(Pixel*Frame) : 0.075
Stream size : 2.73 GiB (74%)
Title : {MINI Super-HQ}_A.Beautiful.Day.in.the.Neighborhood.2019.1080p.BrRip.DTS.x264
Language : English
Default : Yes
Forced : Yes

Audio #1
ID : 2
Format : AC-3
Format/Info : Audio Coding 3
Commercial name : Dolby Digital
Codec ID : A_AC3
Duration : 1 h 48 min
Bit rate mode : Constant
Bit rate : 384 kb/s
Channel(s) : 2 channels
Channel layout : L R
Sampling rate : 48.0 kHz
Frame rate : 31.250 FPS (1536 SPF)
Bit depth : 16 bits
Compression mode : Lossy
Stream size : 299 MiB (8%)
Title : Thai Master
Language : Thai
Service kind : Complete Main
Default : Yes
Forced : Yes

Audio #2
ID : 3
Format : DTS
Format/Info : Digital Theater Systems
Codec ID : A_DTS
Duration : 1 h 48 min
Bit rate mode : Constant
Bit rate : 755 kb/s
Channel(s) : 6 channels
Channel layout : C L R Ls Rs LFE
Sampling rate : 48.0 kHz
Frame rate : 93.750 FPS (512 SPF)
Bit depth : 24 bits
Compression mode : Lossy
Stream size : 587 MiB (15%)
Title : English DTS
Language : English
Default : No
Forced : No

Text #1
ID : 4
Format : VobSub
Codec ID : S_VOBSUB
Codec ID/Info : Picture based subtitle format used on DVDs
Duration : 33 s 314 ms
Bit rate : 2 967 b/s
Count of elements : 1
Stream size : 12.1 KiB (0%)
Title : Thai
Language : Thai
Default : No
Forced : Yes

Text #2
ID : 5
Format : VobSub
Codec ID : S_VOBSUB
Codec ID/Info : Picture based subtitle format used on DVDs
Duration : 1 h 47 min
Bit rate : 3 471 b/s
Count of elements : 1243
Stream size : 2.68 MiB (0%)
Title : Thai 720p
Language : Thai
Default : No
Forced : No

Text #3
ID : 6
Format : VobSub
Codec ID : S_VOBSUB
Codec ID/Info : Picture based subtitle format used on DVDs
Duration : 1 h 47 min
Bit rate : 6 151 b/s
Count of elements : 1243
Stream size : 4.75 MiB (0%)
Title : Thai 1080p
Language : Thai
Default : No
Forced : No

Text #4
ID : 7
Format : VobSub
Codec ID : S_VOBSUB
Codec ID/Info : Picture based subtitle format used on DVDs
Duration : 1 h 47 min
Bit rate : 6 142 b/s
Count of elements : 1243
Stream size : 4.74 MiB (0%)
Title : Thai 1080p Yellow
Language : Thai
Default : No
Forced : No

Text #5
ID : 8
Format : PGS
Codec ID : S_HDMV/PGS
Codec ID/Info : Picture based subtitle format used on BDs/HD-DVDs
Duration : 1 h 47 min
Bit rate : 23.9 kb/s
Count of elements : 2486
Stream size : 18.5 MiB (0%)
Title : Thai 1080p PGS
Language : Thai
Default : No
Forced : No

Text #6
ID : 9
Format : PGS
Codec ID : S_HDMV/PGS
Codec ID/Info : Picture based subtitle format used on BDs/HD-DVDs
Duration : 1 h 47 min
Bit rate : 18.2 kb/s
Count of elements : 2486
Stream size : 14.0 MiB (0%)
Title : Thai 1080p Yellow PGS
Language : Thai
Default : No
Forced : No

Text #7
ID : 10
Format : PGS
Codec ID : S_HDMV/PGS
Codec ID/Info : Picture based subtitle format used on BDs/HD-DVDs
Duration : 1 h 47 min
Bit rate : 24.0 kb/s
Count of elements : 2490
Stream size : 18.5 MiB (0%)
Title : Thai PGS BluRay Master
Language : Thai
Default : No
Forced : No

Text #8
ID : 11
Format : PGS
Codec ID : S_HDMV/PGS
Codec ID/Info : Picture based subtitle format used on BDs/HD-DVDs
Duration : 1 h 47 min
Bit rate : 33.5 kb/s
Count of elements : 2784
Stream size : 25.7 MiB (1%)
Title : English
Language : English
Default : No
Forced : No

Text #9
ID : 12
Format : PGS
Codec ID : S_HDMV/PGS
Codec ID/Info : Picture based subtitle format used on BDs/HD-DVDs
Duration : 1 h 43 min
Bit rate : 31.8 kb/s
Count of elements : 2548
Stream size : 23.5 MiB (1%)
Title : English
Language : English
Default : No
Forced : No



หมายเหตุ ทุกเว็บโหลดแทนกันได้ แต่ต้องเปลี่ยนชื่อให้เรียงกันด้วย

สำหรับสมาชิก VIP เท่านั้น!

[restrict …]

|——————————————————————|

|——————————————————————|

[/restrict]

%d bloggers like this: