Home > VIP > [ZOOM] It (2017) อิท โผล่จากนรก [HD-TS] [ซูมชัด] [พากย์ไทยโรง + อังกฤษ] [MKV] [ONE2UP]

[ZOOM] It (2017) อิท โผล่จากนรก [HD-TS] [ซูมชัด] [พากย์ไทยโรง + อังกฤษ] [MKV] [ONE2UP]

[ZOOM] It (2017) อิท โผล่จากนรก [HD-TS] [ซูมชัด]

It (2017) ภาพยนตร์แนวทริลเลอร์สยองขวัญ ผลงานจากนิวไลน์ ซีเนม่า เรื่อง “IT” กำกับฯ โดย อันเดรส มูเชตติ (“Mama”) สร้างขึ้นจากนิยายที่ได้รับความนิยมอย่างสูง ผลงานของสตีเฟน คิง ในชื่อเดียวกันซึ่งสร้างความสยองขวัญให้กับผู้อ่านมานานหลายทศวรรษ เมื่อเด็กๆ เริ่มหายตัวไปจากเมืองเดอร์รี่ รัฐเมน เด็กๆ กลุ่มหนึ่งต้องเผชิญกับความกลัวครั้งใหญ่เมื่อพวกเขาต้องพบกับตัวตลกร้ายที่ชื่อว่าเพนนีไวซ์ ซึ่งมีประวัติฆาตกรรมและใช้ความรุนแรงมาอย่างโชกโชนเมื่อหลายศตวรรษก่อน

IT.2017.HD-TS.x264.ThaIRong2.0[Load2up.com].mkv
Format : Matroska
Format version : Version 4 / Version 2
File size : 2.23 GiB
Duration : 2 h 8 min
Overall bit rate mode : Variable
Overall bit rate : 2 485 kb/s
Movie name : IT.2017.HD-TS.x264.ThaIRong2.0
Encoded date : UTC 2017-09-16 04:59:40
Writing application : mkvmerge v9.9.0 (‘Pick Up’) 64bit
Writing library : libebml v1.3.4 + libmatroska v1.4.5

Video
ID : 1
Format : AVC
Format/Info : Advanced Video Codec
Format profile : [email protected]
Format settings, CABAC : Yes
Format settings, ReFrames : 6 frames
Codec ID : V_MPEG4/ISO/AVC
Duration : 2 h 8 min
Bit rate mode : Variable
Bit rate : 2 100 kb/s
Maximum bit rate : 62.5 Mb/s
Width : 720 pixels
Height : 320 pixels
Display aspect ratio : 2.25:1
Frame rate mode : Constant
Frame rate : 60.000 FPS
Color space : YUV
Chroma subsampling : 4:2:0
Bit depth : 8 bits
Scan type : Progressive
Bits/(Pixel*Frame) : 0.152
Stream size : 1.88 GiB (84%)
Title : IT.2017.HD-TS.x264.ThaIRong2.0
Writing library : x264 core 148 r2744 b97ae06
Language : English
Default : Yes
Forced : No
Color range : Limited
Color primaries : BT.709
Transfer characteristics : BT.709
Matrix coefficients : BT.709

Audio #1
ID : 2
Format : AC-3
Format/Info : Audio Coding 3
Format settings, Endianness : Big
Codec ID : A_AC3
Duration : 2 h 8 min
Bit rate mode : Constant
Bit rate : 192 kb/s
Channel(s) : 2 channels
Channel positions : Front: L R
Sampling rate : 48.0 kHz
Frame rate : 31.250 FPS (1536 spf)
Bit depth : 16 bits
Compression mode : Lossy
Stream size : 177 MiB (8%)
Title : ThaIRong 2.0 AC-3
Language : Thai
Service kind : Complete Main
Default : No
Forced : No

Audio #2
ID : 3
Format : MPEG Audio
Format version : Version 1
Format profile : Layer 3
Codec ID : A_MPEG/L3
Codec ID/Hint : MP3
Duration : 2 h 8 min
Bit rate mode : Constant
Bit rate : 192 kb/s
Channel(s) : 2 channels
Sampling rate : 44.1 kHz
Frame rate : 38.281 FPS (1152 spf)
Compression mode : Lossy
Stream size : 177 MiB (8%)
Title : English 2.0 MP3
Writing library : LAME3.99.5
Language : English
Default : Yes
Forced : No



สำหรับสมาชิก VIP เท่านั้น!

[restrict …]

|——————————————————————|

|——————————————————————|

[/restrict]