Home > Mini-HD > [MINI-HD 1080P] The Spy Who Dumped Me (2018) สปายสวมรอยข้ามโลก [พากย์ไทยโรง 2.0 + เสียงอังกฤษ 5.1] [MKV] [ONE2UP]

[MINI-HD 1080P] The Spy Who Dumped Me (2018) สปายสวมรอยข้ามโลก [พากย์ไทยโรง 2.0 + เสียงอังกฤษ 5.1] [MKV] [ONE2UP]

[MINI-HD 1080P] The Spy Who Dumped Me (2018) สปายสวมรอยข้ามโลก

The.Spy.Who.Dumped.Me.2018.1080p.WEB-DL.x264.AC3.THR2.0[Load2up.com].mkv
Format : Matroska
Format version : Version 4 / Version 2
File size : 4.21 GiB
Duration : 1 h 56 min
Overall bit rate : 5 154 kb/s
Movie name : The.Spy.Who.Dumped.Me.2018.1080p.WEB-DL.DD5.1.H264
Encoded date : UTC 2018-10-20 07:16:09
Writing application : mkvmerge v25.0.0 (‘Prog Noir’) 64-bit
Writing library : libebml v1.3.6 + libmatroska v1.4.9
Cover : Yes
Attachments : cover_land.jpg / small_cover.jpg / small_cover_land.jpg / cover.jpg

Video
ID : 1
Format : AVC
Format/Info : Advanced Video Codec
Format profile : [email protected]
Format settings, CABAC : Yes
Format settings, ReFrames : 5 frames
Codec ID : V_MPEG4/ISO/AVC
Duration : 1 h 56 min
Bit rate : 4 576 kb/s
Width : 1 912 pixels
Height : 792 pixels
Display aspect ratio : 2.40:1
Frame rate mode : Constant
Frame rate : 23.976 (24000/1001) FPS
Color space : YUV
Chroma subsampling : 4:2:0
Bit depth : 8 bits
Scan type : Progressive
Bits/(Pixel*Frame) : 0.126
Stream size : 3.74 GiB (89%)
Title : The.Spy.Who.Dumped.Me.2018.1080p.WEB-DL.x264.AC3.THR2.0
Language : English
Default : Yes
Forced : No
Color range : Limited
Color primaries : BT.709
Transfer characteristics : BT.709
Matrix coefficients : BT.709

Audio #1
ID : 2
Format : AC-3
Format/Info : Audio Coding 3
Format settings, Endianness : Big
Codec ID : A_AC3
Duration : 1 h 56 min
Bit rate mode : Constant
Bit rate : 192 kb/s
Channel(s) : 2 channels
Channel positions : Front: L R
Sampling rate : 48.0 kHz
Frame rate : 31.250 FPS (1536 spf)
Bit depth : 16 bits
Compression mode : Lossy
Delay relative to video : -42 ms
Stream size : 161 MiB (4%)
Title : Thai Rong 2.0
Language : Thai
Service kind : Complete Main
Default : Yes
Forced : No

Audio #2
ID : 3
Format : AC-3
Format/Info : Audio Coding 3
Format settings, Endianness : Big
Codec ID : A_AC3
Duration : 1 h 56 min
Bit rate mode : Constant
Bit rate : 384 kb/s
Channel(s) : 6 channels
Channel positions : Front: L C R, Side: L R, LFE
Sampling rate : 48.0 kHz
Frame rate : 31.250 FPS (1536 spf)
Bit depth : 16 bits
Compression mode : Lossy
Delay relative to video : -42 ms
Stream size : 321 MiB (7%)
Title : English 5.1
Language : English
Service kind : Complete Main
Default : No
Forced : No



หมายเหตุ ทุกเว็บโหลดแทนกันได้ แต่ต้องเปลี่ยนชื่อให้เรียงกันด้วย

สำหรับสมาชิก VIP เท่านั้น!

[restrict …]

|——————————————————————|

|——————————————————————|

[/restrict]