Home > Mini-HD > [MINI-HD 1080P] The Professor and The Madman (2019) ศาสตราจารย์กับปราชญ์วิกลจริต [พากย์ไทย+อังกฤษ] [SubThai+Eng] [MKV]

[MINI-HD 1080P] The Professor and The Madman (2019) ศาสตราจารย์กับปราชญ์วิกลจริต [พากย์ไทย+อังกฤษ] [SubThai+Eng] [MKV]

The Professor and The Madman (2019) ศาสตราจารย์กับปราชญ์วิกลจริต

The.Professor.and.the.Madman.2019.1080p.BluRay[Load2up.com].mkv
Format : Matroska
Format version : Version 4
File size : 3.91 GiB
Duration : 2 h 4 min
Overall bit rate : 4 488 kb/s
Movie name : The.Professor.and.the.Madman.2019.1080p.BluRay
Encoded date : UTC 2020-02-06 02:55:14
Writing application : mkvmerge v43.0.0 (‘The Quartermaster’) 64-bit
Writing library : libebml v1.3.10 + libmatroska v1.5.2
Cover : Yes
Attachments : cover1.jpg

Video
ID : 1
Format : AVC
Format/Info : Advanced Video Codec
Format profile : [email protected]
Format settings : CABAC / 1 Ref Frames
Format settings, CABAC : Yes
Format settings, ReFrames : 1 frame
Format settings, GOP : M=1, N=25
Codec ID : V_MPEG4/ISO/AVC
Duration : 2 h 4 min
Bit rate mode : Constant
Bit rate : 3 550 kb/s
Width : 1 920 pixels
Height : 808 pixels
Display aspect ratio : 2.40:1
Frame rate mode : Constant
Frame rate : 29.970 (30000/1001) FPS
Color space : YUV
Chroma subsampling : 4:2:0
Bit depth : 8 bits
Scan type : Progressive
Bits/(Pixel*Frame) : 0.076
Stream size : 3.09 GiB (79%)
Title : The.Professor.and.the.Madman.2019.1080p.BluRay
Default : Yes
Forced : No

Audio #1
ID : 2
Format : AC-3
Format/Info : Audio Coding 3
Commercial name : Dolby Digital
Codec ID : A_AC3
Duration : 2 h 4 min
Bit rate mode : Constant
Bit rate : 256 kb/s
Channel(s) : 2 channels
Channel layout : L R
Sampling rate : 44.1 kHz
Frame rate : 28.711 FPS (1536 SPF)
Bit depth : 16 bits
Compression mode : Lossy
Stream size : 228 MiB (6%)
Title : 2.0 AC3 TH.Br 256k 227m
Language : Thai
Service kind : Complete Main
Default : Yes
Forced : No

Audio #2
ID : 3
Format : AC-3
Format/Info : Audio Coding 3
Commercial name : Dolby Digital
Codec ID : A_AC3
Duration : 2 h 4 min
Bit rate mode : Constant
Bit rate : 640 kb/s
Channel(s) : 2 channels
Channel layout : L R
Sampling rate : 44.1 kHz
Frame rate : 28.711 FPS (1536 SPF)
Bit depth : 16 bits
Compression mode : Lossy
Stream size : 571 MiB (14%)
Title : 2.0 AC3 EN.BR 640k 569m
Language : English
Service kind : Complete Main
Default : No
Forced : No

Text #1
ID : 4
Format : PGS
Muxing mode : zlib
Codec ID : S_HDMV/PGS
Codec ID/Info : Picture based subtitle format used on BDs/HD-DVDs
Duration : 2 h 4 min
Bit rate : 24.3 kb/s
Count of elements : 3182
Stream size : 21.6 MiB (1%)
Title : Th.PGS.white.73-70-10[N] Language : Thai
Default : Yes
Forced : No

Text #2
ID : 5
Format : PGS
Muxing mode : zlib
Codec ID : S_HDMV/PGS
Codec ID/Info : Picture based subtitle format used on BDs/HD-DVDs
Duration : 1 h 59 min
Bit rate : 28.3 kb/s
Count of elements : 2970
Stream size : 24.2 MiB (1%)
Title : EN.PGS.Red.85-60-10[n] Language : English
Default : No
Forced : No

Text #3
ID : 6
Format : PGS
Muxing mode : zlib
Codec ID : S_HDMV/PGS
Codec ID/Info : Picture based subtitle format used on BDs/HD-DVDs
Duration : 1 h 59 min
Bit rate : 29.0 kb/s
Count of elements : 3364
Stream size : 24.8 MiB (1%)
Title : EN.SDH.PGS.yellow.85-60-10[n] Language : English
Default : No
Forced : No



หมายเหตุ ทุกเว็บโหลดแทนกันได้ แต่ต้องเปลี่ยนชื่อให้เรียงกันด้วย


สำหรับสมาชิก VIP เท่านั้น!

[restrict …]

|——————————————————————|

|——————————————————————|

[/restrict]

%d bloggers like this: