Home > Mini-HD > [MINI-HD 1080P] Pokemon Detective Pikachu (2019) โปเกมอน ยอดนักสืบพิคาชู [ภาพชัดระดับมาสเตอร์ เสียงไทยโรง 5.1] [พากย์ไทยโรง] [MKV]

[MINI-HD 1080P] Pokemon Detective Pikachu (2019) โปเกมอน ยอดนักสืบพิคาชู [ภาพชัดระดับมาสเตอร์ เสียงไทยโรง 5.1] [พากย์ไทยโรง] [MKV]

[MINI-HD 1080P] Pokemon Detective Pikachu (2019) โปเกมอน ยอดนักสืบพิคาชู

PokA.mon Detective Pikachu.2019.1080p.HDRip.X264.AC3[Load2up.com].mkv
Format : Matroska
Format version : Version 4
File size : 3.82 GiB
Duration : 1 h 37 min
Overall bit rate : 5 618 kb/s
Movie name : EVO
Encoded date : UTC 2019-06-06 04:58:58
Writing application : mkvmerge v33.1.0 (‘Primrose’) 64-bit
Writing library : libebml v1.3.7 + libmatroska v1.5.0

Video
ID : 2
Format : AVC
Format/Info : Advanced Video Codec
Format profile : [email protected]
Format settings : CABAC / 5 Ref Frames
Format settings, CABAC : Yes
Format settings, ReFrames : 5 frames
Codec ID : V_MPEG4/ISO/AVC
Duration : 1 h 37 min
Bit rate : 4 897 kb/s
Width : 1 920 pixels
Height : 800 pixels
Display aspect ratio : 2.40:1
Frame rate mode : Constant
Frame rate : 30.303 FPS
Color space : YUV
Chroma subsampling : 4:2:0
Bit depth : 8 bits
Scan type : Progressive
Bits/(Pixel*Frame) : 0.105
Stream size : 3.35 GiB (88%)
Writing library : x264 core 142 r2479 dd79a61
Default : Yes
Forced : No
Color range : Limited
Color primaries : BT.709
Transfer characteristics : BT.709
Matrix coefficients : BT.709

Audio #1
ID : 1
Format : AC-3
Format/Info : Audio Coding 3
Commercial name : Dolby Digital
Codec ID : A_AC3
Duration : 1 h 37 min
Bit rate mode : Constant
Bit rate : 384 kb/s
Channel(s) : 6 channels
Channel layout : L R C LFE Ls Rs
Sampling rate : 48.0 kHz
Frame rate : 31.250 FPS (1536 SPF)
Bit depth : 16 bits
Compression mode : Lossy
Delay relative to video : -64 ms
Stream size : 267 MiB (7%)
Language : English
Service kind : Complete Main
Default : No
Forced : No

Audio #2
ID : 3
Format : AAC LC
Format/Info : Advanced Audio Codec Low Complexity
Codec ID : A_AAC-2
Duration : 1 h 37 min
Bit rate : 302 kb/s
Channel(s) : 6 channels
Channel layout : C L R Ls Rs LFE
Sampling rate : 48.0 kHz
Frame rate : 46.875 FPS (1024 SPF)
Compression mode : Lossy
Delay relative to video : -66 ms
Stream size : 210 MiB (5%)
Title : เสียงไทยโรง
Language : Thai
Default : Yes
Forced : Yes



หมายเหตุ ทุกเว็บโหลดแทนกันได้ แต่ต้องเปลี่ยนชื่อให้เรียงกันด้วย

สำหรับสมาชิก VIP เท่านั้น!

[restrict …]

|——————————————————————|

|——————————————————————|

[/restrict]