Home > Mini-HD > [MINI-HD 1080P] Mandy (2018) ปีศาจเอาเมียผมไป [Soundtrack บรรยายไทย] [MKV]

[MINI-HD 1080P] Mandy (2018) ปีศาจเอาเมียผมไป [Soundtrack บรรยายไทย] [MKV]

[MINI-HD 1080P] Mandy (2018) ปีศาจเอาเมียผมไป

Mandy.2018.1080p.WEB-DL.DD5.1.H264-SubThai[Load2up.com].mkv
Format : Matroska
Format version : Version 4 / Version 2
File size : 4.28 GiB
Duration : 2 h 1 min
Overall bit rate : 5 051 kb/s
Movie name : Mandy.2018.1080p.WEB-DL.DD5.1.H264.SubThai
Encoded date : UTC 2019-01-01 11:22:39
Writing application : mkvmerge v29.0.0 (‘Like It Or Not’) 64-bit
Writing library : libebml v1.3.6 + libmatroska v1.4.9

Video
ID : 1
Format : AVC
Format/Info : Advanced Video Codec
Format profile : [email protected]
Format settings, CABAC : Yes
Format settings, RefFrames : 5 frames
Codec ID : V_MPEG4/ISO/AVC
Duration : 2 h 1 min
Bit rate : 4 664 kb/s
Width : 1 912 pixels
Height : 800 pixels
Display aspect ratio : 2.40:1
Frame rate mode : Constant
Frame rate : 23.976 (23976/1000) FPS
Color space : YUV
Chroma subsampling : 4:2:0
Bit depth : 8 bits
Scan type : Progressive
Bits/(Pixel*Frame) : 0.127
Stream size : 3.95 GiB (92%)
Title : Mandy.2018.1080p.WEB-DL.DD5.1.H264
Language : English
Default : Yes
Forced : No
Color range : Limited
Color primaries : BT.709
Transfer characteristics : BT.709
Matrix coefficients : BT.709

Audio
ID : 2
Format : AC-3
Format/Info : Audio Coding 3
Format settings, Endianness : Big
Codec ID : A_AC3
Duration : 2 h 1 min
Bit rate mode : Constant
Bit rate : 384 kb/s
Channel(s) : 6 channels
Channel positions : Front: L C R, Side: L R, LFE
Sampling rate : 48.0 kHz
Frame rate : 31.250 FPS (1536 SPF)
Bit depth : 16 bits
Compression mode : Lossy
Delay relative to video : -42 ms
Stream size : 333 MiB (8%)
Title : Mandy.2018.1080p.WEB-DL.DD5.1.H264
Language : English
Service kind : Complete Main
Default : Yes
Forced : No

Text #1
ID : 3
Format : VobSub
Muxing mode : zlib
Codec ID : S_VOBSUB
Codec ID/Info : Picture based subtitle format used on DVDs
Duration : 1 h 48 min
Bit rate : 2 661 b/s
Count of elements : 501
Stream size : 2.07 MiB (0%)
Title : Thai.Vob
Language : Thai
Default : Yes
Forced : No

Text #2
ID : 4
Format : UTF-8
Codec ID : S_TEXT/UTF8
Codec ID/Info : UTF-8 Plain Text
Duration : 1 h 49 min
Bit rate : 16 b/s
Count of elements : 523
Stream size : 12.9 KiB (0%)
Title : Eng.SRT
Language : English
Default : No
Forced : No



หมายเหตุ ทุกเว็บโหลดแทนกันได้ แต่ต้องเปลี่ยนชื่อให้เรียงกันด้วย

สำหรับสมาชิก VIP เท่านั้น!

[restrict …]

|——————————————————————|

|——————————————————————|

[/restrict]