Home > Master > [MINI-HD 1080P HQ] Real Steel (2011) ศึกหุ่นเหล็กกำปั้นถล่มปฐพี [พากย์ไทย 5.1 + อังกฤษ DTS] [ซับไทย + อังกฤษ] [MASTER] [MKV] [ONE2UP] [Filefenix]

[MINI-HD 1080P HQ] Real Steel (2011) ศึกหุ่นเหล็กกำปั้นถล่มปฐพี [พากย์ไทย 5.1 + อังกฤษ DTS] [ซับไทย + อังกฤษ] [MASTER] [MKV] [ONE2UP] [Filefenix]

[MINI-HD 1080P HQ] Real Steel (2011) ศึกหุ่นเหล็กกำปั้นถล่มปฐพี

ภาพยนตร์แอ็คชั่นกำปั้นเหล็กสุดมันส์กับเรื่องราวที่เกิดขึ้นในอนาคตอันใกล้ เมื่อกีฬาชกมวยถูกยกระดับให้ทันสมัยสุดไฮ-เทคมากยิ่งขึ้น “ศึกหุ่นเหล็กกำปั้นถล่มปฐพี” นำแสดงโดย ฮิวจ์ แจ็คแมน ในบท ชาร์ลี เคนตัน กลายเป็นนักชกตกอับที่ไม่มีโอกาสได้ตำแหน่งอะไรเลย เมื่อหุ่นเหล็กสูง 8 ฟุตหนัก 2,000 ปอนด์ ได้เข้ายึดครองเวที ชาร์ลีที่ตอนนี้ผันตัวเองมาเป็นโปรโมเตอร์เล็กๆ ที่พอจะหาเงินมาสร้างหุ่นยนต์ราคาถูกขึ้นมาจากเศษเหล็กเพื่อที่จะก้าวจากเวทีมวยใต้ดินขึ้นไปสู่ระดับที่สูงขึ้นต่อไป แต่เมื่อเขาถึงจุดต่ำสุดของชีวิตเขาต้องจำใจเข้าร่วมทีมกับแมกซ์ (ดาโกตา โกโย) ลูกชายที่ไม่ค่อยจะลงรอยกับเขาเท่าไหร่เพื่อสร้างและฝึกฝนหุ่นยนต์เพื่อจะเข้าแข่งขันชิงแชมป์ การเดิมพันสุดอันตรายบนเวทีที่ไม่มีคำว่ายอมแพ้ ชาร์ลี และแมกซ์ต้องฟันฝ่าไปด้วยกันเพื่อโอกาสครั้งสุดท้ายของการหวนคืนสู่สังเวียนอย่างยิ่งใหญ่

[Super Mini-HD 1080p HQ] Real Steel 2011 BluRay 1080p DTS x264[Load2up.com].mkv
Format : Matroska
Format version : Version 4 / Version 2
File size : 4.28 GiB
Duration : 2 h 6 min
Overall bit rate mode : Variable
Overall bit rate : 4 831 kb/s
Movie name : [Super Mini-HD 1080p HQ] Real Steel 2011 BluRay 1080p DTS x264
Encoded date : UTC 2010-02-22 21:41:31
Writing application : mkvmerge v5.9.0 (‘On The Loose’) built on Dec 9 2012 15:37:01
Writing library : libebml v1.3.0 + libmatroska v1.4.0

Video
ID : 1
Format : AVC
Format/Info : Advanced Video Codec
Format profile : [email protected]
Format settings, CABAC : Yes
Format settings, ReFrames : 4 frames
Codec ID : V_MPEG4/ISO/AVC
Duration : 2 h 6 min
Bit rate mode : Variable
Bit rate : 3 300 kb/s
Maximum bit rate : 100.0 Mb/s
Width : 1 920 pixels
Height : 816 pixels
Display aspect ratio : 2.35:1
Frame rate mode : Constant
Frame rate : 23.976 FPS
Color space : YUV
Chroma subsampling : 4:2:0
Bit depth : 8 bits
Scan type : Progressive
Bits/(Pixel*Frame) : 0.088
Stream size : 2.96 GiB (69%)
Title : [Super Mini-HD 1080p HQ] Real Steel 2011 BluRay 1080p DTS x264
Writing library : x264 core 130 r2273 b3065e6
Language : English
Default : Yes
Forced : No

Audio #1
ID : 2
Format : AC-3
Format/Info : Audio Coding 3
Format settings, Endianness : Big
Codec ID : A_AC3
Duration : 2 h 6 min
Bit rate mode : Constant
Bit rate : 640 kb/s
Channel(s) : 6 channels
Channel positions : Front: L C R, Side: L R, LFE
Sampling rate : 48.0 kHz
Frame rate : 31.250 FPS (1536 spf)
Bit depth : 16 bits
Compression mode : Lossy
Stream size : 581 MiB (13%)
Title : [THAI AC3 FROM BLU-RAY MASTER] Language : Thai
Service kind : Complete Main
Default : Yes
Forced : No

Audio #2
ID : 3
Format : DTS
Format/Info : Digital Theater Systems
Mode : 16
Format settings, Endianness : Big
Codec ID : A_DTS
Duration : 2 h 6 min
Bit rate mode : Constant
Bit rate : 755 kb/s
Channel(s) : 6 channels
Channel positions : Front: L C R, Side: L R, LFE
Sampling rate : 48.0 kHz
Frame rate : 93.750 FPS (512 spf)
Bit depth : 24 bits
Compression mode : Lossy
Stream size : 685 MiB (16%)
Title : eng dts
Language : English
Default : No
Forced : No

Text #1
ID : 4
Format : VobSub
Codec ID : S_VOBSUB
Codec ID/Info : Picture based subtitle format used on DVDs
Title : [SUB THAI 480P FROM BLU-RAY] Language : Thai
Default : No
Forced : No

Text #2
ID : 5
Format : VobSub
Codec ID : S_VOBSUB
Codec ID/Info : Picture based subtitle format used on DVDs
Title : [SUB THAI 480P FROM BLU-RAY] UNDER
Language : Thai
Default : No
Forced : No

Text #3
ID : 6
Format : VobSub
Codec ID : S_VOBSUB
Codec ID/Info : Picture based subtitle format used on DVDs
Title : [SUB THAI 1080P FROM BLU-RAY] Language : Thai
Default : No
Forced : No

Text #4
ID : 7
Format : PGS
Codec ID : S_HDMV/PGS
Codec ID/Info : Picture based subtitle format used on BDs/HD-DVDs
Title : [SUB THAI PGS FROM BLU-RAY] Default : No
Forced : No

Text #5
ID : 8
Format : PGS
Codec ID : S_HDMV/PGS
Codec ID/Info : Picture based subtitle format used on BDs/HD-DVDs
Title : [SUB THAI PGS FROM BLU-RAY] UNDER
Default : No
Forced : No

Text #6
ID : 9
Format : PGS
Codec ID : S_HDMV/PGS
Codec ID/Info : Picture based subtitle format used on BDs/HD-DVDs
Title : [SUB ENG PGS FROM BLU-RAY] Language : English
Default : No
Forced : No

Text #7
ID : 10
Format : VobSub
Codec ID : S_VOBSUB
Codec ID/Info : Picture based subtitle format used on DVDs
Title : [SUB ENG 480P FROM BLU-RAY] Language : English
Default : No
Forced : No



หมายเหตุ ทุกเว็บโหลดแทนกันได้ แต่ต้องเปลี่ยนชื่อให้เรียงกันด้วย

สำหรับสมาชิก VIP เท่านั้น!

[restrict …]

|——————————————————————|

|——————————————————————|

[/restrict]