Home > Master > [MINI-HD 1080P HQ] LADY OF THE DYNASTY (2015) หยางกุ้ยเฟย สนมเอกสะท้านเเผ่นดิน [เสียงไทยมาสเตอร์ 5.1 + ZH DTS] [บรรยายไทย + อังกฤษ] [MASTER] [MKV] [ONE2UP] [Filefenix]

[MINI-HD 1080P HQ] LADY OF THE DYNASTY (2015) หยางกุ้ยเฟย สนมเอกสะท้านเเผ่นดิน [เสียงไทยมาสเตอร์ 5.1 + ZH DTS] [บรรยายไทย + อังกฤษ] [MASTER] [MKV] [ONE2UP] [Filefenix]

[MINI-HD 1080P HQ] LADY OF THE DYNASTY (2015) หยางกุ้ยเฟย สนมเอกสะท้านเเผ่นดิน

สาวน้อยหยางยู่หวนร่ายรำในงานไว้ทุกข์แห่งชาติ ลีลา และความงดงามของนางทำให้ฮ่องเต้ถังหมิงประทับใจเป็นอย่างมาก สนมเอกอู่ฮุ้ยรู้สึกถึงภัยคุกคามที่แอบแฝง จึงทูลความเท็จว่า หยางยู่หวนเป็นลูกสะใภ้ที่ตนหมายปองไว้ให้อ๋องโซ่ว ลูกชายของนาง
หยางยู่หวนกลายเป็นภรรยาของอ๋องโซ่ว ลูกสะใภ้ของฮ่องเต้ แม้ว่าหญิงสาวผู้อ่อนโยน เต็มไปด้วยอารมณ์ศิลปินผู้นี้ ไม่เคยสนใจในเรื่องการเมืองมาก่อน แต่แล้วนางก็ต้องถูกอ้อมล้อมด้วยเรื่องราวเหล่านี้ สนมอู่ฮุ่ยวางแผนใส่ร้ายองค์ชายว่าก่อกบฏ จนองค์ชายทั้งสามถูกลงโทษให้หลอมเป็นรูปปั้น แต่แล้วไม่นาน แผนของสนมอู่ฮุ่ยถูกเปิดโปง นางจึงฆ่าตัวตายในที่สุด อ๋องโซ่วไม่อาจยอมรับความรักที่บิดามีต่อหยางยู่หวน จึงวางยาให้ยู่หวนต้องแท้งลูก หยางยู่หวนที่ใจสลายถูกส่งไปชีพราหมณ์ในที่สุด
ฮ่องเต้ถังหมิงถูกหยางยู่หวนปฏิเสธ ด้วยความโทสะจึงประกาศว่าบังคับให้หยางยู่หวนอภิเษกกับตน แต่แล้วในคืนอภิเษก ฮ่องเต้ไม่ได้ฝืนใจยู่หวน ความสัมพันธ์ของทั้งสองพัฒนาเพิ่มขึ้นจากแรงกดดันทางการเมืองและปัญหาความขัดแย้งรอบตัว จนกระทั่งหยางยู่หวนตกหลุมรักฮ่องเต้ในที่สุด
ภายหลังเกิดกบฏอันสื่อ อันเป็นศึกที่ทำให้สามีทั้งสองของสนมเอกหยางอ๋องโซ่วและฮ่องเต้ถังหมิงกลับมาคืนดีกัน อ๋องโซ่วตายในสนมรบ ส่วนหยางยู่หวนผู้ไม่สนใจการเมืองกลายเป็นผู้มีอำนาจสูงสุดในประเทศ ท่ามกลางสมรภูมิการเมือง หยางยู่หวนปกป้องราชวังต้าถังและสามีของนาง ด้วยวิธีการเสียสละในแบบฉบับของนางเอง

Lady.of.the.Dynasty.2015.1080p.SuperHQ.DTS.x264[Load2up.com].mkv
Format : Matroska
Format version : Version 4 / Version 2
File size : 4.37 GiB
Duration : 2 h 1 min
Overall bit rate : 5 152 kb/s
Movie name : Lady.of.the.Dynasty.2015.1080p.SuperHQ.DTS.x264[Load2up.com].mkv
Encoded date : UTC 2015-11-24 06:09:09
Writing application : mkvmerge v8.1.0 (‘Psychedelic Postcard’) 32bit
Writing library : libebml v1.3.1 + libmatroska v1.4.2

Video
ID : 1
Format : AVC
Format/Info : Advanced Video Codec
Format profile : [email protected]
Format settings, CABAC : Yes
Format settings, ReFrames : 4 frames
Codec ID : V_MPEG4/ISO/AVC
Duration : 2 h 1 min
Bit rate : 3 771 kb/s
Width : 1 920 pixels
Height : 800 pixels
Display aspect ratio : 2.40:1
Frame rate mode : Constant
Frame rate : 24.000 FPS
Color space : YUV
Chroma subsampling : 4:2:0
Bit depth : 8 bits
Scan type : Progressive
Bits/(Pixel*Frame) : 0.102
Stream size : 3.26 GiB (75%)
Title : Lady.of.the.Dynasty.2015.1080p.SuperHQ.DTS.x264.MASTER
Writing library : x264 core 146 r2538 121396c
Language : English
Default : Yes
Forced : No

Audio #1
ID : 2
Format : AC-3
Format/Info : Audio Coding 3
Format settings, Endianness : Big
Codec ID : A_AC3
Duration : 2 h 1 min
Bit rate mode : Constant
Bit rate : 448 kb/s
Channel(s) : 6 channels
Channel positions : Front: L C R, Side: L R, LFE
Sampling rate : 48.0 kHz
Frame rate : 31.250 FPS (1536 spf)
Bit depth : 16 bits
Compression mode : Lossy
Stream size : 389 MiB (9%)
Title : AC3 DVD MASTER
Language : Thai
Service kind : Complete Main
Default : Yes
Forced : Yes

Audio #2
ID : 3
Format : DTS
Format/Info : Digital Theater Systems
Mode : 16
Format settings, Endianness : Big
Codec ID : A_DTS
Duration : 2 h 1 min
Bit rate mode : Constant
Bit rate : 755 kb/s
Channel(s) : 6 channels
Channel positions : Front: L C R, Side: L R, LFE
Sampling rate : 48.0 kHz
Frame rate : 93.750 FPS (512 spf)
Bit depth : 24 bits
Compression mode : Lossy
Stream size : 656 MiB (15%)
Title : DTS
Language : Chinese
Default : No
Forced : No

Text #1
ID : 4
Format : VobSub
Codec ID : S_VOBSUB
Codec ID/Info : Picture based subtitle format used on DVDs
Title : 1080P TSA
Language : Thai
Default : Yes
Forced : Yes

Text #2
ID : 5
Format : VobSub
Codec ID : S_VOBSUB
Codec ID/Info : Picture based subtitle format used on DVDs
Title : 1080P TSA YELLOW
Language : Thai
Default : No
Forced : No

Text #3
ID : 6
Format : VobSub
Codec ID : S_VOBSUB
Codec ID/Info : Picture based subtitle format used on DVDs
Title : 1080P TSA UNDER
Language : Thai
Default : No
Forced : No

Text #4
ID : 7
Format : VobSub
Codec ID : S_VOBSUB
Codec ID/Info : Picture based subtitle format used on DVDs
Title : 1080P AS
Language : Thai
Default : No
Forced : No

Text #5
ID : 8
Format : VobSub
Codec ID : S_VOBSUB
Codec ID/Info : Picture based subtitle format used on DVDs
Title : 480P AS
Language : Thai
Default : No
Forced : No

Text #6
ID : 9
Format : UTF-8
Codec ID : S_TEXT/UTF8
Codec ID/Info : UTF-8 Plain Text
Title : SRT OCR
Language : Thai
Default : No
Forced : No

Text #7
ID : 10
Format : PGS
Codec ID : S_HDMV/PGS
Codec ID/Info : Picture based subtitle format used on BDs/HD-DVDs
Title : TSA
Language : Thai
Default : No
Forced : No

Text #8
ID : 11
Format : PGS
Codec ID : S_HDMV/PGS
Codec ID/Info : Picture based subtitle format used on BDs/HD-DVDs
Title : TSA UNDER
Language : Thai
Default : No
Forced : No

Text #9
ID : 12
Format : PGS
Codec ID : S_HDMV/PGS
Codec ID/Info : Picture based subtitle format used on BDs/HD-DVDs
Title : AS
Language : Thai
Default : No
Forced : No

Text #10
ID : 13
Format : PGS
Codec ID : S_HDMV/PGS
Codec ID/Info : Picture based subtitle format used on BDs/HD-DVDs
Title : BD MASTER
Language : English
Default : No
Forced : No

Text #11
ID : 14
Format : PGS
Codec ID : S_HDMV/PGS
Codec ID/Info : Picture based subtitle format used on BDs/HD-DVDs
Title : BD MASTER
Language : Chinese
Default : No
Forced : No



หมายเหตุ ทุกเว็บโหลดแทนกันได้ แต่ต้องเปลี่ยนชื่อให้เรียงกันด้วย

Cloud2free

สำหรับสมาชิก VIP เท่านั้น!

[restrict …]

|——————————————————————|

|——————————————————————|

[/restrict]