Home > Mini-HD > [MINI-HD 1080P] Black Panther (2018) แบล็ค แพนเธอร์ [พากย์ไทยโรง 5.1 + เสียงอังกฤษ 5.1] [บรรยายอังกฤษ] [MKV] [ONE2UP]

[MINI-HD 1080P] Black Panther (2018) แบล็ค แพนเธอร์ [พากย์ไทยโรง 5.1 + เสียงอังกฤษ 5.1] [บรรยายอังกฤษ] [MKV] [ONE2UP]

[MINI-HD 1080P] Black Panther (2018) แบล็ค แพนเธอร์

Black.Panther.2018.1080p.BRRip.X264.AC3.THR5.1[load2up.com].mkv
Format : Matroska
Format version : Version 4 / Version 2
File size : 4.58 GiB
Duration : 2 h 14 min
Overall bit rate : 4 878 kb/s
Movie name : Black.Panther.2018.1080p.BRRip.X264.AC3.THR5.1
Encoded date : UTC 2018-05-02 14:56:36
Writing application : mkvmerge v9.9.0 (‘Pick Up’) 64bit
Writing library : libebml v1.3.4 + libmatroska v1.4.5
Cover : Yes
Attachments : cover.jpg

Video
ID : 1
Format : AVC
Format/Info : Advanced Video Codec
Format profile : [email protected]
Format settings, CABAC : Yes
Format settings, ReFrames : 4 frames
Codec ID : V_MPEG4/ISO/AVC
Duration : 2 h 14 min
Bit rate : 4 000 kb/s
Width : 1 920 pixels
Height : 808 pixels
Display aspect ratio : 2.40:1
Frame rate mode : Constant
Frame rate : 23.976 (24000/1001) FPS
Color space : YUV
Chroma subsampling : 4:2:0
Bit depth : 8 bits
Scan type : Progressive
Bits/(Pixel*Frame) : 0.108
Stream size : 3.74 GiB (82%)
Title : Black.Panther.2018.1080p.BRRip.X264.AC3.THR5.1
Writing library : x264 core 148 r2708 86b7198
Language : English
Default : Yes
Forced : No
Color range : Limited
Color primaries : BT.709
Transfer characteristics : BT.709
Matrix coefficients : BT.709

Audio #1
ID : 2
Format : AC-3
Format/Info : Audio Coding 3
Format settings, Endianness : Big
Codec ID : A_AC3
Duration : 2 h 14 min
Bit rate mode : Constant
Bit rate : 448 kb/s
Channel(s) : 6 channels
Channel positions : Front: L C R, Side: L R, LFE
Sampling rate : 48.0 kHz
Frame rate : 31.250 FPS (1536 spf)
Bit depth : 16 bits
Compression mode : Lossy
Delay relative to video : -5 ms
Stream size : 431 MiB (9%)
Title : THR 5.1 Modified By ~Mr.Captain~
Language : Thai
Service kind : Complete Main
Default : Yes
Forced : Yes

Audio #2
ID : 3
Format : AC-3
Format/Info : Audio Coding 3
Format settings, Endianness : Big
Codec ID : A_AC3
Duration : 2 h 14 min
Bit rate mode : Constant
Bit rate : 448 kb/s
Channel(s) : 6 channels
Channel positions : Front: L C R, Side: L R, LFE
Sampling rate : 48.0 kHz
Frame rate : 31.250 FPS (1536 spf)
Bit depth : 16 bits
Compression mode : Lossy
Delay relative to video : -5 ms
Stream size : 431 MiB (9%)
Title : English 5.1
Language : English
Service kind : Complete Main
Default : No
Forced : No

Text
ID : 4
Format : UTF-8
Codec ID : S_TEXT/UTF8
Codec ID/Info : UTF-8 Plain Text
Duration : 2 h 10 min
Bit rate : 1 b/s
Count of elements : 68
Stream size : 1.15 KiB (0%)
Title : English Srt
Language : English
Default : No
Forced : No



หมายเหตุ ทุกเว็บโหลดแทนกันได้ แต่ต้องเปลี่ยนชื่อให้เรียงกันด้วย

สำหรับสมาชิก VIP เท่านั้น!

[restrict …]

|——————————————————————|

|——————————————————————|

[/restrict]