Home > Master > [MINI-HD 1080P] Batman The Dark Knight (2008) แบทแมน อัศวินรัตติกาล [พากย์ไทย+อังกฤษ] [SubThai+Eng] [MASTER] [MKV] [ONE2UP]

[MINI-HD 1080P] Batman The Dark Knight (2008) แบทแมน อัศวินรัตติกาล [พากย์ไทย+อังกฤษ] [SubThai+Eng] [MASTER] [MKV] [ONE2UP]

[MINI-HD 1080P] Batman The Dark Knight (2008) แบทแมน อัศวินรัตติกาล

ด้วยความช่วยเหลือของผู้หมวดจิม กอร์ดอน และอัยการเขตฮาร์วีย์ เดนท์ แบทแมนมุ่งมั่นที่จะทำลายล้างองค์กรอาชญากรรมในกอธแฮมให้สิ้นซาก การทำงานแบบสามทหารเสือดูเหมือนจะสัมฤทธิผล แต่ไม่ช้าพวกเขากลับพบว่าตกเป็นเหยื่อของจอมอาชญากรอย่างโจ๊กเกอร์ ผู้ซึ่งทำให้กอธแธมต้องตกอยู่ในความสับสนและบีบบังคับให้อัศวินดำต้องเฉียดเข้าไปใกล้เส้นแบ่งระหว่างวีรบุรุษและวายร้ายมากยิ่งขึ้น

Batman The Dark Knight[Load2up.com].mkv
Format : Matroska
Format version : Version 2
File size : 2.60 GiB
Duration : 2 h 32 min
Overall bit rate : 2 444 kb/s
Movie name : Batman.The.Dark.Knight.2008.1080p.BluRay.x264
Encoded date : UTC 2012-11-27 16:13:33
Writing application : mkvmerge v4.2.0 (‘No Talking’) built on Jul 28 2010 18:38:23
Writing library : libebml v1.0.0 + libmatroska v1.0.0

Video
ID : 1
Format : AVC
Format/Info : Advanced Video Codec
Format profile : [email protected]
Format settings, CABAC : Yes
Format settings, ReFrames : 5 frames
Muxing mode : Header stripping
Codec ID : V_MPEG4/ISO/AVC
Duration : 2 h 32 min
Bit rate : 1 535 kb/s
Width : 1 920 pixels
Height : 800 pixels
Display aspect ratio : 2.40:1
Frame rate mode : Constant
Frame rate : 23.976 (24000/1001) FPS
Color space : YUV
Chroma subsampling : 4:2:0
Bit depth : 8 bits
Scan type : Progressive
Bits/(Pixel*Frame) : 0.042
Stream size : 1.59 GiB (61%)
Title : Batman.The.Dark.Knight.2008.1080p.BluRay.x264
Writing library : x264 core 116 r2074 2641b9e
Language : English
Default : Yes
Forced : No

Audio #1
ID : 2
Format : AC-3
Format/Info : Audio Coding 3
Mode extension : CM (complete main)
Format settings, Endianness : Big
Muxing mode : Header stripping
Codec ID : A_AC3
Duration : 2 h 32 min
Bit rate mode : Constant
Bit rate : 448 kb/s
Channel(s) : 6 channels
Channel positions : Front: L C R, Side: L R, LFE
Sampling rate : 48.0 kHz
Frame rate : 31.250 FPS (1536 spf)
Bit depth : 16 bits
Compression mode : Lossy
Stream size : 488 MiB (18%)
Title : Thai BR Master
Language : Thai
Default : Yes
Forced : Yes

Audio #2
ID : 3
Format : AC-3
Format/Info : Audio Coding 3
Mode extension : CM (complete main)
Format settings, Endianness : Big
Muxing mode : Header stripping
Codec ID : A_AC3
Duration : 2 h 32 min
Bit rate mode : Constant
Bit rate : 448 kb/s
Channel(s) : 6 channels
Channel positions : Front: L C R, Side: L R, LFE
Sampling rate : 48.0 kHz
Frame rate : 31.250 FPS (1536 spf)
Bit depth : 16 bits
Compression mode : Lossy
Stream size : 488 MiB (18%)
Title : English
Language : English
Default : No
Forced : No

Text #1
ID : 4
Format : VobSub
Muxing mode : zlib
Codec ID : S_VOBSUB
Codec ID/Info : Picture based subtitle format used on DVDs
Title : Thai 480p
Language : Thai
Default : No
Forced : No

Text #2
ID : 5
Format : VobSub
Muxing mode : zlib
Codec ID : S_VOBSUB
Codec ID/Info : Picture based subtitle format used on DVDs
Title : Thai 1080p BR Master
Language : Thai
Default : Yes
Forced : Yes

Text #3
ID : 6
Format : VobSub
Muxing mode : zlib
Codec ID : S_VOBSUB
Codec ID/Info : Picture based subtitle format used on DVDs
Title : Thai 1080p BR Master Out
Language : Thai
Default : No
Forced : No

Text #4
ID : 7
Format : UTF-8
Codec ID : S_TEXT/UTF8
Codec ID/Info : UTF-8 Plain Text
Title : English
Language : English
Default : No
Forced : No



หมายเหตุ ทุกเว็บโหลดแทนกันได้ แต่ต้องเปลี่ยนชื่อให้เรียงกันด้วย

สำหรับสมาชิก VIP เท่านั้น!

[restrict …]

|——————————————————————|

|——————————————————————|

[/restrict]