Home > Mini-HD > [MINI-HD 1080P] 21 Bridges (2019) เผด็จศึกยึดนิวยอร์ก [พากย์ไทยโรง] [MKV]

[MINI-HD 1080P] 21 Bridges (2019) เผด็จศึกยึดนิวยอร์ก [พากย์ไทยโรง] [MKV]

21 Bridges (2019) เผด็จศึกยึดนิวยอร์ก

21 Bridges.2019.1080p.WEB-DL.H264.AC3[Load2up.com].mkv
Format : Matroska
Format version : Version 4
File size : 3.54 GiB
Duration : 1 h 39 min
Overall bit rate : 5 098 kb/s
Encoded date : UTC 2020-02-05 13:44:05
Writing application : mkvmerge v40.0.0 (‘Old Town Road + Pony’) 64-bit
Writing library : libebml v1.3.9 + libmatroska v1.5.2

Video
ID : 2
Format : AVC
Format/Info : Advanced Video Codec
Format profile : [email protected]
Format settings : CABAC / 5 Ref Frames
Format settings, CABAC : Yes
Format settings, ReFrames : 5 frames
Codec ID : V_MPEG4/ISO/AVC
Duration : 1 h 39 min
Bit rate : 4 590 kb/s
Width : 1 912 pixels
Height : 798 pixels
Display aspect ratio : 2.40:1
Frame rate mode : Constant
Frame rate : 24.000 FPS
Color space : YUV
Chroma subsampling : 4:2:0
Bit depth : 8 bits
Scan type : Progressive
Bits/(Pixel*Frame) : 0.125
Stream size : 3.19 GiB (90%)
Language : English
Default : Yes
Forced : No
Color range : Limited
Color primaries : BT.709
Transfer characteristics : BT.709
Matrix coefficients : BT.709

Audio #1
ID : 1
Format : AC-3
Format/Info : Audio Coding 3
Commercial name : Dolby Digital
Codec ID : A_AC3
Duration : 1 h 39 min
Bit rate mode : Constant
Bit rate : 384 kb/s
Channel(s) : 6 channels
Channel layout : L R C LFE Ls Rs
Sampling rate : 48.0 kHz
Frame rate : 31.250 FPS (1536 SPF)
Bit depth : 16 bits
Compression mode : Lossy
Stream size : 273 MiB (8%)
Language : English
Service kind : Complete Main
Default : No
Forced : No

Audio #2
ID : 3
Format : AAC LC
Format/Info : Advanced Audio Codec Low Complexity
Codec ID : A_AAC-2
Duration : 1 h 39 min
Bit rate : 122 kb/s
Channel(s) : 2 channels
Channel layout : L R
Sampling rate : 44.1 kHz
Frame rate : 43.066 FPS (1024 SPF)
Compression mode : Lossy
Stream size : 87.0 MiB (2%)
Title : เสียงไทย โดย ดีเจ อาท
Language : Thai
Default : Yes
Forced : Yes



หมายเหตุ ทุกเว็บโหลดแทนกันได้ แต่ต้องเปลี่ยนชื่อให้เรียงกันด้วย


สำหรับสมาชิก VIP เท่านั้น!

[restrict …]

|——————————————————————|

|——————————————————————|

[/restrict]

%d bloggers like this: