Home > Mini-HD > [MINI-HD 1080P] The Guardians (2017) โคตรคนการ์เดี้ยน [พากย์ไทยโรง] [เสียงไทยโรง+ซับอังกฤษ] [MKV] [ONE2UP] [Filefenix]

[MINI-HD 1080P] The Guardians (2017) โคตรคนการ์เดี้ยน [พากย์ไทยโรง] [เสียงไทยโรง+ซับอังกฤษ] [MKV] [ONE2UP] [Filefenix]

[MINI-HD 1080P] The Guardians (2017) โคตรคนการ์เดี้ยน

Guardians Guardains เป็นการเปิดมิติใหม่ให้กับหนังซุปเปอร์ฮีโร่ ที่โลกไม่เคยเห็นมาก่อน การรวมตัวของเหล่ายอดมนุษย์แดนหมีขาวที่รับรองว่ามันไม่แพ้ฮอลลีวู้ด เรื่องราวเกิดขึ้นช่วงสงครามมเย็น องค์กรลับที่เรียกตัวเองว่า แพทริออต จัดตั้งทีมซุปเปอร์ฮีโร่ขึ้นมาโดยการดัดแปลงดีเอ็นเอให้อาสาสมัครมีความสามารถเหนือมนุษย์ มีจุดประสงค์เพื่อให้พวกเขาปกป้องแผ่นดินมาตุภูมิ ทีมนี้มีสมาชิกจากจากหลายประเทศในสหภาพโซเวียต หลายปีที่พวกเขาต้องซ่อนอยู่อย่างลับๆ ไม่ให้ใครรู้ตัวตน แต่เมื่อสถานการณ์บีบบังคับทำ
ให้พวกเขาต้องเผยตัวเพื่อลุกขึ้นสู้อีกครั้ง!

The.Guardians.2017.RUSSIAN.1080p.WEB-DL.H264.DD5.1_THRONG[Load2up.com].mkv
Format : Matroska
Format version : Version 4 / Version 2
File size : 3.11 GiB
Duration : 1 h 29 min
Overall bit rate : 5 005 kb/s
Movie name : The.Guardians.2017.RUSSIAN.1080p.WEB-DL.H264.DD5.1_THRONG
Encoded date : UTC 2017-04-18 10:31:28
Writing application : mkvmerge v7.7.0 (‘Six Voices’) 32bit built on Feb 28 2015 23:23:00
Writing library : libebml v1.3.1 + libmatroska v1.4.2

Video
ID : 1
Format : AVC
Format/Info : Advanced Video Codec
Format profile : [email protected]
Format settings, CABAC : Yes
Format settings, ReFrames : 5 frames
Codec ID : V_MPEG4/ISO/AVC
Duration : 1 h 29 min
Bit rate : 4 522 kb/s
Width : 1 908 pixels
Height : 796 pixels
Display aspect ratio : 2.40:1
Frame rate mode : Constant
Frame rate : 23.976 (24000/1001) FPS
Color space : YUV
Chroma subsampling : 4:2:0
Bit depth : 8 bits
Scan type : Progressive
Bits/(Pixel*Frame) : 0.124
Stream size : 2.81 GiB (90%)
Title : The.Guardians.2017.RUSSIAN.1080p.WEB-DL.H264.DD5.1_THRONG
Language : Russian
Default : Yes
Forced : No
Color range : Limited
Color primaries : BT.709
Transfer characteristics : BT.709
Matrix coefficients : BT.709

Audio #1
ID : 2
Format : AC-3
Format/Info : Audio Coding 3
Format settings, Endianness : Big
Codec ID : A_AC3
Duration : 1 h 29 min
Bit rate mode : Constant
Bit rate : 384 kb/s
Channel(s) : 6 channels
Channel positions : Front: L C R, Side: L R, LFE
Sampling rate : 48.0 kHz
Frame rate : 31.250 FPS (1536 spf)
Bit depth : 16 bits
Compression mode : Lossy
Stream size : 245 MiB (8%)
Title : RUSSIAN.5.1
Language : Russian
Service kind : Complete Main
Default : No
Forced : No

Audio #2
ID : 4
Format : AAC
Format/Info : Advanced Audio Codec
Format profile : LC
Codec ID : A_AAC
Duration : 1 h 29 min
Bit rate : 96.0 kb/s
Channel(s) : 2 channels
Channel positions : Front: L R
Sampling rate : 44.1 kHz
Frame rate : 43.066 FPS (1024 spf)
Compression mode : Lossy
Stream size : 61.2 MiB (2%)
Title : THRONG
Language : Thai
Default : Yes
Forced : Yes

Text
ID : 3
Format : UTF-8
Codec ID : S_TEXT/UTF8
Codec ID/Info : UTF-8 Plain Text
Duration : 1 h 20 min
Bit rate : 32 b/s
Count of elements : 569
Stream size : 19.1 KiB (0%)
Language : English
Default : No
Forced : No



หมายเหตุ ทุกเว็บโหลดแทนกันได้ แต่ต้องเปลี่ยนชื่อให้เรียงกันด้วย

สำหรับสมาชิก VIP เท่านั้น!

[restrict …]

|——————————————————————|

|——————————————————————|

[/restrict]

(Visited 3,711 times, 3 visits today)