[Super HQ 1080p] Cruella (2021) ครูเอลล่า [เสียงอังกฤษ DTS-5.1 + พากย์ไทย Master] [บรรยาย: ไทย-อังกฤษ Master + ซับ PGS คมชัด] [MASTER] [MKV]

Cruella (2021) ครูเอลล่า

{MINI_Super-HQ}_Cruella.(2021).1080p.BrRip.x264.DTS-5.1.THM.Load2up.com.mkv
Format : Matroska
Format version : Version 4
File size : 4.15 GiB
Duration : 2 h 13 min
Overall bit rate : 4 432 kb/s
Movie name : {MINI Super-HQ}_Cruella.(2021).1080p.BrRip.x264.DTS-5.1.THM
Encoded date : UTC 2021-09-03 05:44:42
Writing application : mkvmerge v9.8.0 (‘Kuglblids’) 64bit
Writing library : libebml v1.3.4 + libmatroska v1.4.5

Video
ID : 1
Format : AVC
Format/Info : Advanced Video Codec
Format profile : High@L4.1
Format settings : CABAC / 4 Ref Frames
Format settings, CABAC : Yes
Format settings, ReFrames : 4 frames
Codec ID : V_MPEG4/ISO/AVC
Duration : 2 h 13 min
Bit rate : 3 172 kb/s
Width : 1 920 pixels
Height : 1 036 pixels
Display aspect ratio : 1.85:1
Frame rate mode : Constant
Frame rate : 23.976 (24000/1001) FPS
Color space : YUV
Chroma subsampling : 4:2:0
Bit depth : 8 bits
Scan type : Progressive
Bits/(Pixel*Frame) : 0.067
Stream size : 2.97 GiB (72%)
Title : {MINI Super-HQ}_Cruella.(2021).1080p.BrRip.x264.DTS-5.1.THM
Writing library : x264 core 146 r2538 121396c
Default : Yes
Forced : No

Audio #1
ID : 2
Format : AC-3
Format/Info : Audio Coding 3
Commercial name : Dolby Digital
Codec ID : A_AC3
Duration : 2 h 13 min
Bit rate mode : Constant
Bit rate : 384 kb/s
Channel(s) : 2 channels
Channel layout : L R
Sampling rate : 48.0 kHz
Frame rate : 31.250 FPS (1536 SPF)
Bit depth : 16 bits
Compression mode : Lossy
Stream size : 368 MiB (9%)
Title : Thai Master
Language : Thai
Service kind : Complete Main
Default : Yes
Forced : Yes

Audio #2
ID : 3
Format : DTS
Format/Info : Digital Theater Systems
Codec ID : A_DTS
Duration : 2 h 13 min
Bit rate mode : Constant
Bit rate : 755 kb/s
Channel(s) : 6 channels
Channel layout : C L R Ls Rs LFE
Sampling rate : 48.0 kHz
Frame rate : 93.750 FPS (512 SPF)
Bit depth : 24 bits
Compression mode : Lossy
Stream size : 723 MiB (17%)
Title : English DTS-5.1
Language : English
Default : No
Forced : No

Text #1
ID : 4
Format : PGS
Codec ID : S_HDMV/PGS
Codec ID/Info : Picture based subtitle format used on BDs/HD-DVDs
Duration : 2 h 13 min
Bit rate : 31.2 kb/s
Count of elements : 3058
Stream size : 29.8 MiB (1%)
Title : Thai 1080p PGS
Language : Thai
Default : Yes
Forced : Yes

Text #2
ID : 5
Format : VobSub
Codec ID : S_VOBSUB
Codec ID/Info : Picture based subtitle format used on DVDs
Duration : 2 h 13 min
Bit rate : 7 324 b/s
Count of elements : 1528
Stream size : 7.00 MiB (0%)
Title : Thai 1080p
Language : Thai
Default : No
Forced : No

Text #3
ID : 6
Format : PGS
Codec ID : S_HDMV/PGS
Codec ID/Info : Picture based subtitle format used on BDs/HD-DVDs
Duration : 2 h 13 min
Bit rate : 30.1 kb/s
Count of elements : 3058
Stream size : 28.7 MiB (1%)
Title : Thai 1080p Out PGS
Language : Thai
Default : No
Forced : No

Text #4
ID : 7
Format : VobSub
Codec ID : S_VOBSUB
Codec ID/Info : Picture based subtitle format used on DVDs
Duration : 2 h 13 min
Bit rate : 7 016 b/s
Count of elements : 1528
Stream size : 6.71 MiB (0%)
Title : Thai 1080p Out
Language : Thai
Default : No
Forced : No

Text #5
ID : 8
Format : VobSub
Codec ID : S_VOBSUB
Codec ID/Info : Picture based subtitle format used on DVDs
Duration : 2 h 13 min
Bit rate : 9 954 b/s
Count of elements : 1528
Stream size : 9.52 MiB (0%)
Title : Thai 1080p Big [Yellow] Language : Thai
Default : No
Forced : No

Text #6
ID : 9
Format : PGS
Codec ID : S_HDMV/PGS
Codec ID/Info : Picture based subtitle format used on BDs/HD-DVDs
Duration : 2 h 11 min
Bit rate : 35.0 kb/s
Count of elements : 3804
Stream size : 33.0 MiB (1%)
Title : English PGS
Language : English
Default : No
Forced : No

Text #7
ID : 10
Format : UTF-8
Codec ID : S_TEXT/UTF8
Codec ID/Info : UTF-8 Plain Text
Duration : 2 h 6 min
Bit rate : 46 b/s
Count of elements : 1576
Stream size : 43.6 KiB (0%)
Title : English SRT
Language : English
Default : No
Forced : No



หมายเหตุ ทุกเว็บโหลดแทนกันได้ แต่ต้องเปลี่ยนชื่อให้เรียงกันด้วย


สำหรับสมาชิก VIP เท่านั้น!

%d bloggers like this: