[MINI-HD 1080P] Trolls (2016) โทรลล์ส [พากย์ไทย5.1+อังกฤษDTS] [บรรยายไทย+อังกฤษ] [MASTER] [MKV] [ONE2UP]

[MINI-HD 1080P] Trolls (2016) โทรลล์ส

เรื่องราวสนุกสุดฮากวนโอ๊ยเกี่ยวกับการค้นหาความสุขและการดิ้นรนเพื่อให้ได้ความสุขนั้นมา หนังเรื่องนี้นำผู้ชมไปสู่โลกมหัศจรรย์สีสันสดใสอันเป็นที่อยู่อาศัยของเหล่าโทรลล์ผู้มองโลกในแง่ดีเกินไปและเอาแต่ร้องรำทำเพลงกันทั้งวันทั้งคืน กับเหล่าเบอร์เกนผู้มองโลกในแง่ร้ายจนน่าขันและจะมีความสุขได้ก็ต่อเมื่อมีตัวโทรลล์อยู่ในท้องเท่านั้น หลังจากเบอร์เกนบุกโจมตีหมู่บ้านโทรลล์ ป๊อปปี (แอนนา เคนดริค) โทรลล์ผู้มีความสุขที่สุดในโลกกับแบรนช์ (จัสติน ทิมเบอร์เลค) โทรลล์จอมหวาดระแวงที่อารมณ์เสียตลอดเวลา จึงได้ร่วมกันออกเดินทางไปช่วยเหลือเพื่อนๆภารกิจครั้งนี้เต็มไปด้วยการผจญภัยและเรื่องวุ่นๆ ขณะที่คู่หูต่างขั้วคู่นี้ต้องพยายามอดทนกับอีกฝ่ายเพื่อทำงานให้สำเร็จ!!!

Trolls.2016.1080p.SuperHQ.DTS.x264[Load2up.com].mkv
Format : Matroska
Format version : Version 4 / Version 2
File size : 3.90 GiB
Duration : 1 h 32 min
Overall bit rate : 6 034 kb/s
Movie name : {MINI Super-HQ}_Trolls.2016.2016.1080p.BrRip.DTS.x264
Encoded date : UTC 2010-02-22 21:41:31
Writing application : mkvmerge v5.9.0 (‘On The Loose’) built on Dec 9 2012 15:37:01
Writing library : libebml v1.3.0 + libmatroska v1.4.0

Video
ID : 1
Format : AVC
Format/Info : Advanced Video Codec
Format profile : High@L4
Format settings, CABAC : Yes
Format settings, ReFrames : 4 frames
Codec ID : V_MPEG4/ISO/AVC
Duration : 1 h 32 min
Bit rate : 4 727 kb/s
Width : 1 920 pixels
Height : 816 pixels
Display aspect ratio : 2.35:1
Frame rate mode : Constant
Frame rate : 23.976 (24000/1001) FPS
Color space : YUV
Chroma subsampling : 4:2:0
Bit depth : 8 bits
Scan type : Progressive
Bits/(Pixel*Frame) : 0.126
Stream size : 3.04 GiB (78%)
Title : {MINI Super-HQ}_Trolls.2016.2016.1080p.BrRip.DTS.x264
Writing library : x264 core 130 r2273 b3065e6
Language : English
Default : Yes
Forced : No
Color range : Limited
Color primaries : BT.709
Transfer characteristics : BT.709
Matrix coefficients : BT.709

Audio #1
ID : 2
Format : AC-3
Format/Info : Audio Coding 3
Mode extension : CM (complete main)
Format settings, Endianness : Big
Codec ID : A_AC3
Duration : 1 h 32 min
Bit rate mode : Constant
Bit rate : 448 kb/s
Channel(s) : 6 channels
Channel positions : Front: L C R, Side: L R, LFE
Sampling rate : 48.0 kHz
Frame rate : 31.250 FPS (1536 spf)
Bit depth : 16 bits
Compression mode : Lossy
Stream size : 296 MiB (7%)
Title : Thai BluRay Master
Language : Thai
Default : Yes
Forced : Yes

Audio #2
ID : 3
Format : DTS
Format/Info : Digital Theater Systems
Mode : 16
Format settings, Endianness : Big
Codec ID : A_DTS
Duration : 1 h 32 min
Bit rate mode : Constant
Bit rate : 755 kb/s
Channel(s) : 6 channels
Channel positions : Front: L C R, Side: L R, LFE
Sampling rate : 48.0 kHz
Frame rate : 93.750 FPS (512 spf)
Bit depth : 24 bits
Compression mode : Lossy
Stream size : 499 MiB (13%)
Title : English DTS
Language : English
Default : No
Forced : No

Text #1
ID : 4
Format : VobSub
Codec ID : S_VOBSUB
Codec ID/Info : Picture based subtitle format used on DVDs
Title : Thai 480p
Language : Thai
Default : No
Forced : No

Text #2
ID : 5
Format : VobSub
Codec ID : S_VOBSUB
Codec ID/Info : Picture based subtitle format used on DVDs
Title : Thai 720p
Language : Thai
Default : No
Forced : No

Text #3
ID : 6
Format : VobSub
Codec ID : S_VOBSUB
Codec ID/Info : Picture based subtitle format used on DVDs
Title : Thai 1080p
Language : Thai
Default : Yes
Forced : Yes

Text #4
ID : 7
Format : VobSub
Codec ID : S_VOBSUB
Codec ID/Info : Picture based subtitle format used on DVDs
Title : Thai 1080p Yellow
Language : Thai
Default : No
Forced : No

Text #5
ID : 8
Format : VobSub
Codec ID : S_VOBSUB
Codec ID/Info : Picture based subtitle format used on DVDs
Title : Thai 1080p Out
Language : Thai
Default : No
Forced : No

Text #6
ID : 9
Format : VobSub
Codec ID : S_VOBSUB
Codec ID/Info : Picture based subtitle format used on DVDs
Title : Thai 1080p BIG
Language : Thai
Default : No
Forced : No

Text #7
ID : 10
Format : VobSub
Codec ID : S_VOBSUB
Codec ID/Info : Picture based subtitle format used on DVDs
Title : Thai 1080p Out [BIG] Language : Thai
Default : No
Forced : No

Text #8
ID : 11
Format : PGS
Codec ID : S_HDMV/PGS
Codec ID/Info : Picture based subtitle format used on BDs/HD-DVDs
Title : Thai PGS BluRay Master
Language : Thai
Default : No
Forced : No

Text #9
ID : 12
Format : PGS
Codec ID : S_HDMV/PGS
Codec ID/Info : Picture based subtitle format used on BDs/HD-DVDs
Title : Thai PGS Out
Language : Thai
Default : No
Forced : No

Text #10
ID : 13
Format : UTF-8
Codec ID : S_TEXT/UTF8
Codec ID/Info : UTF-8 Plain Text
Title : English
Language : English
Default : No
Forced : No



หมายเหตุ ทุกเว็บโหลดแทนกันได้ แต่ต้องเปลี่ยนชื่อให้เรียงกันด้วย

สำหรับสมาชิก VIP เท่านั้น!

[restrict …]

#

|——————————————————————|

|——————————————————————|

[/restrict]

%d bloggers like this: