[MINI-HD 1080P] The Willoughbys (2020) วิลโลบี้ สี่พี่น้องผจญภัย [NF] [พากย์ไทย มาสเตอร์ + เสียงอังกฤษ DD5.1] [บรรยายไทย + อังกฤษ] [ซับไทย PGS คมชัด!] [MKV]

The Willoughbys (2020) วิลโลบี้ สี่พี่น้องผจญภัย

The.Willoughbys.2020.1080p.NF.WEBRip.DDP5.1.x264.Load2up.com.mkv
Format : Matroska
Format version : Version 4
File size : 3.19 GiB
Duration : 1 h 32 min
Overall bit rate mode : Variable
Overall bit rate : 4 949 kb/s
Movie name : The.Willoughbys.2020.1080p.NF.WEBRip.DDP5.1.x264
Encoded date : UTC 2020-04-23 17:35:41
Writing application : mkvmerge v40.0.0 (‘Old Town Road + Pony’) 64-bit
Writing library : libebml v1.3.9 + libmatroska v1.5.2

Video
ID : 1
Format : AVC
Format/Info : Advanced Video Codec
Format profile : [email protected]
Format settings : CABAC / 3 Ref Frames
Format settings, CABAC : Yes
Format settings, ReFrames : 3 frames
Codec ID : V_MPEG4/ISO/AVC
Duration : 1 h 32 min
Bit rate mode : Variable
Bit rate : 3 480 kb/s
Maximum bit rate : 5 220 kb/s
Width : 1 920 pixels
Height : 1 080 pixels
Display aspect ratio : 16:9
Frame rate mode : Constant
Frame rate : 24.000 FPS
Color space : YUV
Chroma subsampling : 4:2:0
Bit depth : 8 bits
Scan type : Progressive
Bits/(Pixel*Frame) : 0.070
Stream size : 2.20 GiB (69%)
Title : The.Willoughbys.2020.1080p.NF.WEBRip.DDP5.1.x264
Writing library : x264 core 148 r2717 0d2410d
Language : English
Default : Yes
Forced : No

Audio #1
ID : 2
Format : AC-3
Format/Info : Audio Coding 3
Commercial name : Dolby Digital
Codec ID : A_AC3
Duration : 1 h 32 min
Bit rate mode : Constant
Bit rate : 384 kb/s
Channel(s) : 2 channels
Channel layout : L R
Sampling rate : 44.1 kHz
Frame rate : 28.711 FPS (1536 SPF)
Bit depth : 16 bits
Compression mode : Lossy
Stream size : 253 MiB (8%)
Title : Thai Master 2.0 @ 384 kb/s
Language : Thai
Service kind : Complete Main
Default : Yes
Forced : Yes

Audio #2
ID : 3
Format : E-AC-3 JOC
Format/Info : Enhanced AC-3 with Joint Object Coding
Commercial name : Dolby Digital Plus with Dolby Atmos
Codec ID : A_EAC3
Duration : 1 h 32 min
Bit rate mode : Constant
Bit rate : 768 kb/s
Channel(s) : 6 channels
Channel layout : L R C LFE Ls Rs
Sampling rate : 48.0 kHz
Frame rate : 31.250 FPS (1536 SPF)
Compression mode : Lossy
Stream size : 507 MiB (16%)
Title : English DD5.1 @ 768 kb/s
Language : English
Service kind : Complete Main
Default : No
Forced : No
Complexity index : 16
Number of dynamic objects : 15
Bed channel count : 1 channel
Bed channel configuration : LFE

Text #1
ID : 4
Format : UTF-8
Codec ID : S_TEXT/UTF8
Codec ID/Info : UTF-8 Plain Text
Duration : 1 h 30 min
Bit rate : 157 b/s
Count of elements : 1399
Stream size : 104 KiB (0%)
Title : Thai SRT
Language : Thai
Default : No
Forced : No

Text #2
ID : 5
Format : VobSub
Codec ID : S_VOBSUB
Codec ID/Info : Picture based subtitle format used on DVDs
Duration : 1 h 30 min
Bit rate : 11.2 kb/s
Count of elements : 1399
Stream size : 7.25 MiB (0%)
Title : Thai Yellow
Language : Thai
Default : No
Forced : No

Text #3
ID : 6
Format : VobSub
Codec ID : S_VOBSUB
Codec ID/Info : Picture based subtitle format used on DVDs
Duration : 1 h 30 min
Bit rate : 11.2 kb/s
Count of elements : 1399
Stream size : 7.25 MiB (0%)
Title : Thai 1080p
Language : Thai
Default : No
Forced : No

Text #4
ID : 7
Format : VobSub
Codec ID : S_VOBSUB
Codec ID/Info : Picture based subtitle format used on DVDs
Duration : 1 h 30 min
Bit rate : 6 000 b/s
Count of elements : 1399
Stream size : 3.89 MiB (0%)
Title : Thai 720p
Language : Thai
Default : No
Forced : No

Text #5
ID : 8
Format : VobSub
Codec ID : S_VOBSUB
Codec ID/Info : Picture based subtitle format used on DVDs
Duration : 1 h 30 min
Bit rate : 3 180 b/s
Count of elements : 1399
Stream size : 2.06 MiB (0%)
Title : Thai 480p
Language : Thai
Default : No
Forced : No

Text #6
ID : 9
Format : VobSub
Codec ID : S_VOBSUB
Codec ID/Info : Picture based subtitle format used on DVDs
Duration : 1 h 30 min
Bit rate : 11.0 kb/s
Count of elements : 1399
Stream size : 7.13 MiB (0%)
Title : Thai TH Sarabun
Language : Thai
Default : No
Forced : No

Text #7
ID : 10
Format : VobSub
Codec ID : S_VOBSUB
Codec ID/Info : Picture based subtitle format used on DVDs
Duration : 1 h 30 min
Bit rate : 10.3 kb/s
Count of elements : 1399
Stream size : 6.69 MiB (0%)
Title : Thai Dillenia
Language : Thai
Default : No
Forced : No

Text #8
ID : 11
Format : VobSub
Codec ID : S_VOBSUB
Codec ID/Info : Picture based subtitle format used on DVDs
Duration : 1 h 30 min
Bit rate : 10.3 kb/s
Count of elements : 1399
Stream size : 6.69 MiB (0%)
Title : Thai Dillenia OUT
Language : Thai
Default : Yes
Forced : Yes

Text #9
ID : 12
Format : PGS
Codec ID : S_HDMV/PGS
Codec ID/Info : Picture based subtitle format used on BDs/HD-DVDs
Duration : 1 h 30 min
Bit rate : 49.4 kb/s
Count of elements : 2798
Stream size : 32.0 MiB (1%)
Title : Thai PGS
Language : Thai
Default : No
Forced : No

Text #10
ID : 13
Format : PGS
Codec ID : S_HDMV/PGS
Codec ID/Info : Picture based subtitle format used on BDs/HD-DVDs
Duration : 1 h 30 min
Bit rate : 75.8 kb/s
Count of elements : 2798
Stream size : 49.1 MiB (2%)
Title : Thai PGS BIG
Language : Thai
Default : No
Forced : No

Text #11
ID : 14
Format : PGS
Codec ID : S_HDMV/PGS
Codec ID/Info : Picture based subtitle format used on BDs/HD-DVDs
Duration : 1 h 30 min
Bit rate : 43.5 kb/s
Count of elements : 2798
Stream size : 28.2 MiB (1%)
Title : Thai Dillenia PGS
Language : Thai
Default : No
Forced : No

Text #12
ID : 15
Format : PGS
Codec ID : S_HDMV/PGS
Codec ID/Info : Picture based subtitle format used on BDs/HD-DVDs
Duration : 1 h 30 min
Bit rate : 48.2 kb/s
Count of elements : 2798
Stream size : 31.2 MiB (1%)
Title : Thai TH Sarabun PGS
Language : Thai
Default : No
Forced : No

Text #13
ID : 16
Format : PGS
Codec ID : S_HDMV/PGS
Codec ID/Info : Picture based subtitle format used on BDs/HD-DVDs
Duration : 1 h 30 min
Bit rate : 49.4 kb/s
Count of elements : 2798
Stream size : 32.0 MiB (1%)
Title : Thai Yellow PGS
Language : Thai
Default : No
Forced : No

Text #14
ID : 17
Format : UTF-8
Codec ID : S_TEXT/UTF8
Codec ID/Info : UTF-8 Plain Text
Duration : 1 h 30 min
Bit rate : 62 b/s
Count of elements : 1323
Stream size : 41.5 KiB (0%)
Title : English
Language : English
Default : No
Forced : No

Text #15
ID : 18
Format : VobSub
Codec ID : S_VOBSUB
Codec ID/Info : Picture based subtitle format used on DVDs
Duration : 1 h 30 min
Bit rate : 10.2 kb/s
Count of elements : 1323
Stream size : 6.60 MiB (0%)
Title : English 1080p
Language : German
Default : No
Forced : No

Text #16
ID : 19
Format : PGS
Codec ID : S_HDMV/PGS
Codec ID/Info : Picture based subtitle format used on BDs/HD-DVDs
Duration : 1 h 30 min
Bit rate : 46.8 kb/s
Count of elements : 2646
Stream size : 30.2 MiB (1%)
Title : English PGS
Language : English
Default : No
Forced : No



หมายเหตุ ทุกเว็บโหลดแทนกันได้ แต่ต้องเปลี่ยนชื่อให้เรียงกันด้วย


สำหรับสมาชิก VIP เท่านั้น!

[restrict …]

|——————————————————————|

|——————————————————————|

[/restrict]