[MINI-HD 1080P] The Thousand Faces of Dunjia (2017) ผู้พิทักษ์หมัดเทวดา [บรรยายไทย] [พากย์จีน 5.1] [ซับไทย + อังกฤษ] [MKV] [ONE2UP]

[MINI-HD 1080P] The Thousand Faces of Dunjia (2017) ผู้พิทักษ์หมัดเทวดา

นักสู้หนุ่มเข้าร่วมพรรคปฏิบัติการลับแห่งนักรบเวทมนตร์ ผู้ใช้กงจักร และผู้เหาะเหินเพื่อช่วยโลกจากพลังมืดอันลี้ลับ

The Thousand Faces of Dunjia[Load2up.com].mkv
Format : Matroska
Format version : Version 4 / Version 2
File size : 6.20 GiB
Duration : 1 h 53 min
Overall bit rate : 7 860 kb/s
Encoded date : UTC 2018-03-16 15:36:53
Writing application : mkvmerge v21.0.0 (‘Tardigrades Will Inherit The Earth’) 64-bit
Writing library : libebml v1.3.5 + libmatroska v1.4.8

Video
ID : 4
Format : AVC
Format/Info : Advanced Video Codec
Format profile : [email protected]
Format settings, CABAC : Yes
Format settings, ReFrames : 2 frames
Format settings, GOP : M=1, N=12
Codec ID : V_MPEG4/ISO/AVC
Duration : 1 h 53 min
Bit rate : 7 646 kb/s
Width : 1 920 pixels
Height : 1 080 pixels
Display aspect ratio : 16:9
Frame rate mode : Constant
Frame rate : 24.000 FPS
Color space : YUV
Chroma subsampling : 4:2:0
Bit depth : 8 bits
Scan type : Progressive
Bits/(Pixel*Frame) : 0.154
Stream size : 6.04 GiB (97%)
Default : Yes
Forced : No

Audio
ID : 3
Format : E-AC-3
Format/Info : Enhanced Audio Coding 3
Format settings, Endianness : Big
Codec ID : A_EAC3
Duration : 1 h 53 min
Bit rate mode : Constant
Bit rate : 192 kb/s
Channel(s) : 6 channels
Channel positions : Front: L C R, Side: L R, LFE
Sampling rate : 48.0 kHz
Frame rate : 187.500 FPS (256 spf)
Compression mode : Lossy
Delay relative to video : -42 ms
Stream size : 155 MiB (2%)
Service kind : Complete Main
Default : Yes
Forced : No

Text #1
ID : 1
Format : VobSub
Muxing mode : zlib
Codec ID : S_VOBSUB
Codec ID/Info : Picture based subtitle format used on DVDs
Duration : 1 h 52 min
Bit rate : 10.8 kb/s
Count of elements : 1226
Stream size : 8.63 MiB (0%)
Language : Thai
Default : Yes
Forced : No

Text #2
ID : 2
Format : PGS
Muxing mode : zlib
Codec ID : S_HDMV/PGS
Codec ID/Info : Picture based subtitle format used on BDs/HD-DVDs
Duration : 1 h 52 min
Bit rate : 36.3 kb/s
Count of elements : 2452
Stream size : 29.1 MiB (0%)
Default : No
Forced : No



หมายเหตุ ทุกเว็บโหลดแทนกันได้ แต่ต้องเปลี่ยนชื่อให้เรียงกันด้วย

สำหรับสมาชิก VIP เท่านั้น!

[restrict …]

|——————————————————————|

|——————————————————————|

[/restrict]