Home > Mini-HD > [MINI-HD 1080P] The Sleepover (2020) เดอะ สลีปโอเวอร์ [เสียงไทย 5.1 + เสียงอังกฤษ 5.1 Atmos] [บรรยายไทย + อังกฤษ] [เสียง + ซับไทย Master From Netflix + ซับ PGS] [MKV]

[MINI-HD 1080P] The Sleepover (2020) เดอะ สลีปโอเวอร์ [เสียงไทย 5.1 + เสียงอังกฤษ 5.1 Atmos] [บรรยายไทย + อังกฤษ] [เสียง + ซับไทย Master From Netflix + ซับ PGS] [MKV]

The Sleepover (2020) เดอะ สลีปโอเวอร์

The.Sleepover.2020.1080p.NF.WEB-DL.DDP5.1.Atmos.x264.Load2up,com.mkv
Format : Matroska
Format version : Version 4
File size : 4.22 GiB
Duration : 1 h 43 min
Overall bit rate mode : Variable
Overall bit rate : 5 813 kb/s
Movie name : The.Sleepover.2020.1080p.NF.WEB-DL.DDP5.1.Atmos.x264
Encoded date : UTC 2020-08-21 08:18:49
Writing application : mkvmerge v49.0.0 (‘Sick Of Losing Soulmates’) 64-bit
Writing library : libebml v1.4.0 + libmatroska v1.6.1

Video
ID : 1
Format : AVC
Format/Info : Advanced Video Codec
Format profile : [email protected]
Format settings : CABAC / 3 Ref Frames
Format settings, CABAC : Yes
Format settings, ReFrames : 3 frames
Codec ID : V_MPEG4/ISO/AVC
Duration : 1 h 43 min
Bit rate mode : Variable
Bit rate : 4 420 kb/s
Maximum bit rate : 6 630 kb/s
Width : 1 920 pixels
Height : 1 080 pixels
Display aspect ratio : 16:9
Frame rate mode : Constant
Frame rate : 24.000 FPS
Color space : YUV
Chroma subsampling : 4:2:0
Bit depth : 8 bits
Scan type : Progressive
Bits/(Pixel*Frame) : 0.089
Stream size : 3.11 GiB (74%)
Title : The.Sleepover.2020.1080p.NF.WEB-DL.DDP5.1.Atmos.x264
Writing library : x264 core 148 r2722 1b0121b
Language : English
Default : Yes
Forced : No

Audio #1
ID : 2
Format : E-AC-3 JOC
Format/Info : Enhanced AC-3 with Joint Object Coding
Commercial name : Dolby Digital Plus with Dolby Atmos
Codec ID : A_EAC3
Duration : 1 h 43 min
Bit rate mode : Constant
Bit rate : 768 kb/s
Channel(s) : 6 channels
Channel layout : L R C LFE Ls Rs
Sampling rate : 48.0 kHz
Frame rate : 31.250 FPS (1536 SPF)
Compression mode : Lossy
Stream size : 570 MiB (13%)
Title : English
Language : English
Service kind : Complete Main
Default : No
Forced : No
Complexity index : 16
Number of dynamic objects : 15
Bed channel count : 1 channel
Bed channel configuration : LFE

Audio #2
ID : 3
Format : E-AC-3
Format/Info : Enhanced AC-3
Commercial name : Dolby Digital Plus
Codec ID : A_EAC3
Duration : 1 h 43 min
Bit rate mode : Constant
Bit rate : 640 kb/s
Channel(s) : 6 channels
Channel layout : L R C LFE Ls Rs
Sampling rate : 48.0 kHz
Frame rate : 31.250 FPS (1536 SPF)
Compression mode : Lossy
Stream size : 475 MiB (11%)
Title : Thai
Language : Thai
Service kind : Complete Main
Default : Yes
Forced : No

Text #1
ID : 4
Format : UTF-8
Codec ID : S_TEXT/UTF8
Codec ID/Info : UTF-8 Plain Text
Duration : 1 h 40 min
Bit rate : 166 b/s
Count of elements : 1612
Stream size : 122 KiB (0%)
Title : Thai SRT From Netflix
Language : Thai
Default : Yes
Forced : No

Text #2
ID : 5
Format : UTF-8
Codec ID : S_TEXT/UTF8
Codec ID/Info : UTF-8 Plain Text
Duration : 1 h 39 min
Bit rate : 3 b/s
Count of elements : 31
Stream size : 2.53 KiB (0%)
Title : Thai SRT From Netflix Forced
Language : Thai
Default : No
Forced : No

Text #3
ID : 6
Format : UTF-8
Codec ID : S_TEXT/UTF8
Codec ID/Info : UTF-8 Plain Text
Duration : 1 h 35 min
Bit rate : 102 b/s
Count of elements : 2025
Stream size : 71.8 KiB (0%)
Title : English SRT
Language : English
Default : No
Forced : No

Text #4
ID : 7
Format : PGS
Muxing mode : zlib
Codec ID : S_HDMV/PGS
Codec ID/Info : Picture based subtitle format used on BDs/HD-DVDs
Duration : 1 h 40 min
Bit rate : 50.0 kb/s
Count of elements : 3224
Stream size : 35.8 MiB (1%)
Title : Thai PGS [Angsana] Language : Thai
Default : No
Forced : No

Text #5
ID : 8
Format : PGS
Muxing mode : zlib
Codec ID : S_HDMV/PGS
Codec ID/Info : Picture based subtitle format used on BDs/HD-DVDs
Duration : 1 h 40 min
Bit rate : 50.0 kb/s
Count of elements : 3224
Stream size : 35.8 MiB (1%)
Title : Thai PGS [Angsana Yellow] Language : Thai
Default : No
Forced : No

Text #6
ID : 9
Format : PGS
Muxing mode : zlib
Codec ID : S_HDMV/PGS
Codec ID/Info : Picture based subtitle format used on BDs/HD-DVDs
Duration : 1 h 40 min
Bit rate : 49.3 kb/s
Count of elements : 3224
Stream size : 35.3 MiB (1%)
Title : Thai PGS [Sarabun] Language : Thai
Default : No
Forced : No

Text #7
ID : 10
Format : PGS
Muxing mode : zlib
Codec ID : S_HDMV/PGS
Codec ID/Info : Picture based subtitle format used on BDs/HD-DVDs
Duration : 1 h 40 min
Bit rate : 49.3 kb/s
Count of elements : 3224
Stream size : 35.3 MiB (1%)
Title : Thai PGS [Sarabun Yellow] Language : Thai
Default : No
Forced : No

Text #8
ID : 11
Format : PGS
Muxing mode : zlib
Codec ID : S_HDMV/PGS
Codec ID/Info : Picture based subtitle format used on BDs/HD-DVDs
Duration : 1 h 35 min
Bit rate : 62.0 kb/s
Count of elements : 4050
Stream size : 42.2 MiB (1%)
Title : English PGS
Language : English
Default : No
Forced : No



หมายเหตุ ทุกเว็บโหลดแทนกันได้ แต่ต้องเปลี่ยนชื่อให้เรียงกันด้วย


สำหรับสมาชิก VIP เท่านั้น!

[restrict …]

|——————————————————————|

|——————————————————————|

[/restrict]

%d bloggers like this: