[MINI-HD 720P] THE SHAPE OF WATER (2018) เดอะ เชพ ออฟ วอเทอร์ [Soundtrack บรรยายไทย] [MKV] [ONE2UP]

[MINI-HD 1080P] THE SHAPE OF WATER (2018) เดอะ เชพ ออฟ วอเทอร์

ปี 1962 ฺBaltimore สาวใบ้แสนเหงา Eliza ภารโรงทำความสะอาดในห้อง Lab ลับของรัฐบาล วันหนึ่งเจ้าหน้าที่เข็น “สมบัติล้ำค่า” เข้ามา นับวันเธอเองให้สงสัยถึงสิ่งนี้ยิ่งขึ้น และในที่สุดจึงได้รู้ว่าแท้จริงสิ่งในกระสวยเหล็กนี้ ก็คือ “อมนุษย์-พรายน้ำ” สิ่งแปลกประหลาดล้ำลึกสุดลึกลับของสถาบัน ด้วยความอยากรู้อยากเห็นทำให้เธอเริ่มสานสัมพันธ์กับ มันแล้วต่อมาในที่สุด…กลายเป็นความรัก เธอรักเจ้าพรายน้ำตนนี้ และก็บากบั่นที่หาวิธีปลดปล่อยให้มันมีอิสรภาพจากที่ จองจำคุมขัง
นับวันอมนุษย์-พรายน้ำยิ่งถูกทำร้ายอย่างขาดความกรุณาปรานี และมันกำลังถูกเตรียมเพื่อการทดลองที่โหดร้ายทารุณ ภายใต้การควบคุมของ Strickland เจ้าหน้าที่จอมโหด การทำผิดกฎ และลักลอบช่วยเหลือครั้งนี้จะลงเอยเช่นไร.

The_Shape_Of_Water(2018).mkv
Format : Matroska
Format version : Version 2
File size : 4.26 GiB
Duration : 2 h 3 min
Overall bit rate mode : Variable
Overall bit rate : 4 951 kb/s
Encoded date : UTC 2018-03-17 11:13:35
Writing application : MakeMKV v1.9.1 win(x86-release)
Writing library : libmakemkv v1.9.1 (1.3.0/1.4.1) win(x86-release)

Video
ID : 1
Format : MPEG Video
Format version : Version 2
Format profile : [email protected]
Format settings, BVOP : Yes
Format settings, Matrix : Custom
Format settings, GOP : M=3, N=15
Codec ID : V_MPEG2
Codec ID/Info : MPEG 1 or 2 Video
Duration : 2 h 3 min
Bit rate mode : Variable
Bit rate : 4 084 kb/s
Maximum bit rate : 8 000 kb/s
Width : 720 pixels
Height : 480 pixels
Display aspect ratio : 16:9
Frame rate mode : Constant
Frame rate : 29.970 (30000/1001) FPS
Standard : NTSC
Color space : YUV
Chroma subsampling : 4:2:0
Bit depth : 8 bits
Scan type : Progressive
Compression mode : Lossy
Bits/(Pixel*Frame) : 0.394
Time code of first frame : 00:00:00:00
Time code source : Group of pictures header
Stream size : 3.52 GiB (82%)
Language : English
Default : No
Forced : No

Audio #1
ID : 2
Format : AC-3
Format/Info : Audio Coding 3
Format settings, Endianness : Big
Codec ID : A_AC3
Duration : 2 h 3 min
Bit rate mode : Constant
Bit rate : 384 kb/s
Channel(s) : 6 channels
Channel positions : Front: L C R, Side: L R, LFE
Sampling rate : 48.0 kHz
Frame rate : 31.250 FPS (1536 spf)
Bit depth : 16 bits
Compression mode : Lossy
Stream size : 339 MiB (8%)
Title : Surround 5.1
Language : Russian
Service kind : Complete Main
Default : Yes
Forced : No

Audio #2
ID : 3
Format : AC-3
Format/Info : Audio Coding 3
Format settings, Endianness : Big
Codec ID : A_AC3
Duration : 2 h 3 min
Bit rate mode : Constant
Bit rate : 384 kb/s
Channel(s) : 5 channels
Channel positions : Front: L C R, Side: L R
Sampling rate : 48.0 kHz
Frame rate : 31.250 FPS (1536 spf)
Bit depth : 16 bits
Compression mode : Lossy
Stream size : 339 MiB (8%)
Title : Surround 5.0
Language : English
Service kind : Complete Main
Default : No
Forced : No

Text #1
ID : 4
Format : VobSub
Codec ID : S_VOBSUB
Codec ID/Info : Picture based subtitle format used on DVDs
Language : Russian
Default : Yes
Forced : No

Text #2
ID : 5
Format : VobSub
Codec ID : S_VOBSUB
Codec ID/Info : Picture based subtitle format used on DVDs
Language : English
Default : No
Forced : No

Text #3
ID : 6
Format : VobSub
Codec ID : S_VOBSUB
Codec ID/Info : Picture based subtitle format used on DVDs
Language : Thai
Default : No
Forced : No



หมายเหตุ ทุกเว็บโหลดแทนกันได้ แต่ต้องเปลี่ยนชื่อให้เรียงกันด้วย

สำหรับสมาชิก VIP เท่านั้น!

[restrict …]

|——————————————————————|

|——————————————————————|

[/restrict]

%d bloggers like this: