Home > Master > [MINI-HD 1080P] The Raven (2012) เจาะแผนคลั่ง ลอกสูตรฆ่า [พากย์ไทย 5.1 + English DTS] [บรรยายไทย + อังกฤษ] [พากย์ไทย บรรยายไทย] [MKV]

[MINI-HD 1080P] The Raven (2012) เจาะแผนคลั่ง ลอกสูตรฆ่า [พากย์ไทย 5.1 + English DTS] [บรรยายไทย + อังกฤษ] [พากย์ไทย บรรยายไทย] [MKV]

[MINI-HD 1080P] The Raven (2012) เจาะแผนคลั่ง ลอกสูตรฆ่า

[Super HQ]The.Raven.2012.1080p.BluRay[Load2up.com].mkv
Format : Matroska
Format version : Version 4
File size : 4.10 GiB
Duration : 1 h 50 min
Overall bit rate : 5 300 kb/s
Movie name : The.Raven.2012.1080p.BluRay.-[Super HQ] Encoded date : UTC 2019-06-26 09:38:16
Writing application : mkvmerge v35.0.0 (‘All The Love In The World’) 64-bit
Writing library : libebml v1.3.9 + libmatroska v1.5.2

Video
ID : 1
Format : AVC
Format/Info : Advanced Video Codec
Format profile : [email protected]
Format settings : CABAC / 1 Ref Frames
Format settings, CABAC : Yes
Format settings, ReFrames : 1 frame
Format settings, GOP : M=1, N=25
Codec ID : V_MPEG4/ISO/AVC
Duration : 1 h 50 min
Bit rate mode : Constant
Bit rate : 4 000 kb/s
Width : 1 920 pixels
Height : 800 pixels
Display aspect ratio : 2.40:1
Frame rate mode : Constant
Frame rate : 29.970 (30000/1001) FPS
Color space : YUV
Chroma subsampling : 4:2:0
Bit depth : 8 bits
Scan type : Progressive
Bits/(Pixel*Frame) : 0.087
Stream size : 3.09 GiB (75%)
Language : English
Default : Yes
Forced : No

Audio #1
ID : 2
Format : AC-3
Format/Info : Audio Coding 3
Commercial name : Dolby Digital
Codec ID : A_AC3
Duration : 1 h 50 min
Bit rate mode : Constant
Bit rate : 640 kb/s
Channel(s) : 6 channels
Channel layout : L R C LFE Ls Rs
Sampling rate : 44.1 kHz
Frame rate : 28.711 FPS (1536 SPF)
Bit depth : 16 bits
Compression mode : Lossy
Stream size : 508 MiB (12%)
Title : 5.1 AC3-Thai 640k 507m
Language : Thai
Service kind : Complete Main
Default : Yes
Forced : No

Audio #2
ID : 3
Format : DTS
Format/Info : Digital Theater Systems
Codec ID : A_DTS
Duration : 1 h 50 min
Bit rate mode : Constant
Bit rate : 661 kb/s
Channel(s) : 6 channels
Channel layout : C L R Ls Rs LFE
Sampling rate : 8 000 Hz
Frame rate : 7.813 FPS (1024 SPF)
Bit depth : 16 bits
Compression mode : Lossy
Stream size : 524 MiB (12%)
Title : dts 5.1-Eng 8000-524m
Language : English
Default : No
Forced : No

Text #1
ID : 4
Format : UTF-8
Codec ID : S_TEXT/UTF8
Codec ID/Info : UTF-8 Plain Text
Duration : 1 h 41 min
Bit rate : 140 b/s
Count of elements : 1154
Stream size : 104 KiB (0%)
Title : SRT
Language : Thai
Default : Yes
Forced : No

Text #2
ID : 5
Format : UTF-8
Codec ID : S_TEXT/UTF8
Codec ID/Info : UTF-8 Plain Text
Duration : 1 h 42 min
Bit rate : 54 b/s
Count of elements : 1186
Stream size : 40.6 KiB (0%)
Title : SRT
Language : English
Default : No
Forced : No

Text #3
ID : 6
Format : UTF-8
Codec ID : S_TEXT/UTF8
Codec ID/Info : UTF-8 Plain Text
Duration : 1 h 42 min
Bit rate : 56 b/s
Count of elements : 1294
Stream size : 42.4 KiB (0%)
Title : SRT-Hearing
Language : English
Default : No
Forced : No



หมายเหตุ ทุกเว็บโหลดแทนกันได้ แต่ต้องเปลี่ยนชื่อให้เรียงกันด้วย

สำหรับสมาชิก VIP เท่านั้น!

[restrict …]

|——————————————————————|

|——————————————————————|

[/restrict]