[MINI-HD 1080P] The Knight of Shadows: Between Yin and Yang (2019) โคตรพยัคฆ์หยินหยาง [พากย์ไทยโรง 2.0 + เสียงจีน 2.0] [บรรยายจีนฝัง] [MKV]

[MINI-HD 1080P] The Knight of Shadows: Between Yin and Yang (2019) โคตรพยัคฆ์หยินหยาง

The.Knight.of.Shadows.Between.Yin.and.Yang.2019.1080p.X264.AC3.THR2.0[Load2up.com].mkv
Format : Matroska
Format version : Version 4
File size : 2.57 GiB
Duration : 1 h 48 min
Overall bit rate : 3 376 kb/s
Movie name : The.Knight.of.Shadows.Between.Yin.and.Yang.2019.1080p.X264.AC3.THR2.0
Encoded date : UTC 2019-03-20 01:23:15
Writing application : mkvmerge v25.0.0 (‘Prog Noir’) 64-bit
Writing library : libebml v1.3.6 + libmatroska v1.4.9

Video
ID : 1
Format : AVC
Format/Info : Advanced Video Codec
Format profile : [email protected]
Format settings : CABAC / 3 Ref Frames
Format settings, CABAC : Yes
Format settings, ReFrames : 3 frames
Codec ID : V_MPEG4/ISO/AVC
Duration : 1 h 48 min
Bit rate : 2 927 kb/s
Width : 1 920 pixels
Height : 800 pixels
Display aspect ratio : 2.40:1
Frame rate mode : Constant
Frame rate : 24.000 FPS
Color space : YUV
Chroma subsampling : 4:2:0
Bit depth : 8 bits
Scan type : Progressive
Bits/(Pixel*Frame) : 0.079
Stream size : 2.23 GiB (87%)
Title : The.Knight.of.Shadows.Between.Yin.and.Yang.2019.1080p.X264.AC3.THR2.0
Writing library : qiyi.com vtc-test
Language : Chinese
Default : Yes
Forced : No
Color range : Limited
Color primaries : BT.709
Transfer characteristics : BT.709
Matrix coefficients : BT.709

Audio #1
ID : 2
Format : AC-3
Format/Info : Audio Coding 3
Commercial name : Dolby Digital
Codec ID : A_AC3
Duration : 1 h 48 min
Bit rate mode : Constant
Bit rate : 384 kb/s
Channel(s) : 2 channels
Channel layout : L R
Sampling rate : 48.0 kHz
Frame rate : 31.250 FPS (1536 SPF)
Bit depth : 16 bits
Compression mode : Lossy
Delay relative to video : -83 ms
Stream size : 299 MiB (11%)
Title : ThaiRong 2.0 @ 384 kb/s
Language : Thai
Service kind : Complete Main
Default : Yes
Forced : Yes

Audio #2
ID : 3
Format : AAC LC SBR
Format/Info : Advanced Audio Codec Low Complexity with Spectral Band Replication
Commercial name : HE-AAC
Format settings : Implicit
Codec ID : A_AAC-2
Duration : 1 h 48 min
Bit rate : 62.9 kb/s
Channel(s) : 2 channels
Channel layout : L R
Sampling rate : 44.1 kHz
Frame rate : 21.533 FPS (2048 SPF)
Compression mode : Lossy
Delay relative to video : -83 ms
Stream size : 49.0 MiB (2%)
Title : Chinese 2.0 @ 63.4 kb/s
Language : Chinese
Default : No
Forced : No



หมายเหตุ ทุกเว็บโหลดแทนกันได้ แต่ต้องเปลี่ยนชื่อให้เรียงกันด้วย

สำหรับสมาชิก VIP เท่านั้น!

[restrict …]

|——————————————————————|

|——————————————————————|

[/restrict]

%d bloggers like this: