Home > Mini-HD > [MINI-HD 1080P] Tag (2018) ก๊วนแท็คเกม เพื่อนแท้ แพ้ไม่เป็น [พากย์ไทยมาสเตอร์ 2.0 + เสียงอังกฤษ 5.1] [บรรยายไทย + อังกฤษ] [ซับไทย From BluRay Master] [MKV]

[MINI-HD 1080P] Tag (2018) ก๊วนแท็คเกม เพื่อนแท้ แพ้ไม่เป็น [พากย์ไทยมาสเตอร์ 2.0 + เสียงอังกฤษ 5.1] [บรรยายไทย + อังกฤษ] [ซับไทย From BluRay Master] [MKV]

Tag (2018) ก๊วนแท็คเกม เพื่อนแท้ แพ้ไม่เป็น

[Super HQ]Tag.2018.1080p.BluRay.x264[Load2up.com].mkv
Format : Matroska
Format version : Version 4
File size : 3.87 GiB
Duration : 1 h 40 min
Overall bit rate : 5 514 kb/s
Movie name : Tag.2018.1080p.BluRay.x264-[Super HQ] Encoded date : UTC 2019-06-24 23:47:12
Writing application : mkvmerge v35.0.0 (‘All The Love In The World’) 64-bit
Writing library : libebml v1.3.9 + libmatroska v1.5.2

Video
ID : 1
Format : AVC
Format/Info : Advanced Video Codec
Format profile : [email protected]
Format settings : CABAC / 1 Ref Frames
Format settings, CABAC : Yes
Format settings, ReFrames : 1 frame
Format settings, GOP : M=1, N=25
Codec ID : V_MPEG4/ISO/AVC
Duration : 1 h 40 min
Bit rate mode : Constant
Bit rate : 4 000 kb/s
Width : 1 920 pixels
Height : 800 pixels
Display aspect ratio : 2.40:1
Frame rate mode : Constant
Frame rate : 29.970 (30000/1001) FPS
Color space : YUV
Chroma subsampling : 4:2:0
Bit depth : 8 bits
Scan type : Progressive
Bits/(Pixel*Frame) : 0.087
Stream size : 2.81 GiB (72%)
Language : English
Default : Yes
Forced : No

Audio #1
ID : 2
Format : AC-3
Format/Info : Audio Coding 3
Commercial name : Dolby Digital
Codec ID : A_AC3
Duration : 1 h 40 min
Bit rate mode : Constant
Bit rate : 192 kb/s
Channel(s) : 6 channels
Channel layout : L R C LFE Ls Rs
Sampling rate : 44.1 kHz
Frame rate : 28.711 FPS (1536 SPF)
Bit depth : 16 bits
Compression mode : Lossy
Stream size : 138 MiB (3%)
Title : 5.1 AC3-Thai 192k 138m
Language : Thai
Service kind : Complete Main
Default : Yes
Forced : No

Audio #2
ID : 3
Format : DTS
Format/Info : Digital Theater Systems
Codec ID : A_DTS
Duration : 1 h 40 min
Bit rate mode : Constant
Bit rate : 1 323 kb/s
Channel(s) : 6 channels
Channel layout : C L R Ls Rs LFE
Sampling rate : 16.0 kHz
Frame rate : 15.625 FPS (1024 SPF)
Bit depth : 16 bits
Compression mode : Lossy
Stream size : 951 MiB (24%)
Title : dts 5.1-Eng 16000-951m
Language : English
Default : No
Forced : No

Text #1
ID : 4
Format : UTF-8
Codec ID : S_TEXT/UTF8
Codec ID/Info : UTF-8 Plain Text
Duration : 1 h 40 min
Bit rate : 206 b/s
Count of elements : 1957
Stream size : 152 KiB (0%)
Title : SRT
Language : Thai
Default : Yes
Forced : No

Text #2
ID : 5
Format : UTF-8
Codec ID : S_TEXT/UTF8
Codec ID/Info : UTF-8 Plain Text
Duration : 1 h 39 min
Bit rate : 93 b/s
Count of elements : 2040
Stream size : 68.0 KiB (0%)
Title : SRT
Language : English
Default : No
Forced : No

Text #3
ID : 6
Format : UTF-8
Codec ID : S_TEXT/UTF8
Codec ID/Info : UTF-8 Plain Text
Duration : 1 h 40 min
Bit rate : 99 b/s
Count of elements : 2143
Stream size : 73.0 KiB (0%)
Title : SRT-Hearing
Language : English
Default : No
Forced : No



หมายเหตุ ทุกเว็บโหลดแทนกันได้ แต่ต้องเปลี่ยนชื่อให้เรียงกันด้วย

สำหรับสมาชิก VIP เท่านั้น!

[restrict …]

|——————————————————————|

|——————————————————————|

[/restrict]