[MINI-HD 1080P] Sword Master (2016) ดาบปราบเทวดา [พากย์ไทย 5.1 + เสียงจีน DTS] [บรรยายไทย + อังกฤษ] [MASTER] [MKV] [ONE2UP]

[MINI-HD 1080P] Sword Master (2016) ดาบปราบเทวดา

เจี่ยวเฮียวฮง (หลินเกิงซิน) คุณชายสามแห่งหมู่บ้านกระบี่เทพเจ้า เป็นจอมยุทธกระบี่ที่ได้รับการขนานนามว่าเก่งกาจที่สุดในปฐพีตั้งแต่อายุได้ เพียง 12 ปี แต่เมื่อโตขึ้น เขาเบื่อหน่ายการเสียเลือดเนื้อไปกับโลกแห่งศิลปะป้องกันตัว ดาบปราบเทวดา เขาสูญเสียความสามารถในเพลงกระบี่ และตัดสินใจหนีจากทุกสิ่ง ทำตัวเองให้กลายเป็นบุคคลสาบสูญ เขาแพร่ข่าวปลอมว่าตัวเขานั้นได้ตายไปแล้ว จากนั้นจึงไปซ่อนตัวอยู่ในโรงเตี๊ยมแห่งหนึ่ง ณ ที่แห่งนั้น เขากลายเป็นเพียงนักการภารโรงที่ผู้คนรู้จักกันในนามว่า “อากิก” และใช้ชีวิตอย่างหมาวัดที่ตกหลุมรักดอกฟ้าอย่างหญิงบริการนามว่า “เสี่ยวลี่” (เจียงเมิ่งเจี๋ย) ขณะเดียวกัน มียอดฝีมือกระบี่แห่งยุทธจักอีกคนนามว่า อี้จับซา (เหอหยุนตง) ที่มักถูกผู้คนรอบข้างจำผิด ว่าเขาคือคุณชายสาม ความปรารถนาในชีวิตของเขามีเพียงสิ่งเดียวคือการได้ประลองยุทธ์กับคุณชายสาม ดูสักครั้ง เมื่อเขาได้ทราบข่าวการตายของคุณชายสาม อี้จับซาตกอยู่ในความสิ้นหวัง คิดว่าเป้าหมายชีวิตของเขาจะไม่มีวันได้รับการเติมเต็ม แต่แล้ววันหนึ่งเขาได้พบกับอากิก กลับจำไม่ได้ว่า แท้จริงแล้วหนุ่มภารโรงคนนี้ คือคู่ประลองในฝันของเขา อีกทั้งยังได้สอนวิชายุทธศาสตร์ลับให้กับอากิกอีกด้วย ในขณะนั้น ฉิวตี้ (เจียงอวี้เหยียน) อดีตคู่หมั้นของคุณชายสาม รู้สึกโกรธเกลียดเขาเพราะคุณชายทิ้งเธอไปในวันแต่งงาน ก่อให้เกิดเป็นความเกลียดชังระหว่างตระกูลของเธอและเขา เพื่อล้างแค้นที่ถูกหักอก เธอจึงยุยงอี้จับซาให้ปลิดชีพคุณชายสามทิ้งเสีย และเพื่อจะล่อให้คุณชายสามกลับออกมาจากการซ่อนตัว เธอจึงทำการสังหารหมู่ที่วิหารจอมยุทธ์ วางแผนล่อลวงให้เกิดการประลองยุทธ์ขึ้น

{MINI Super-HQ}_Sword.Master.2016.1080p.BrRip.DTS.x264[Load2up.com].mkv
Format : Matroska
Format version : Version 4 / Version 2
File size : 3.93 GiB
Duration : 1 h 47 min
Overall bit rate : 5 221 kb/s
Movie name : {MINI Super-HQ}_Sword.Master.2016.1080p.BrRip.DTS.x264
Encoded date : UTC 2010-02-22 21:41:31
Writing application : mkvmerge v5.9.0 (‘On The Loose’) built on Dec 9 2012 15:37:01
Writing library : libebml v1.3.0 + libmatroska v1.4.0

Video
ID : 1
Format : AVC
Format/Info : Advanced Video Codec
Format profile : High@L4
Format settings, CABAC : Yes
Format settings, ReFrames : 4 frames
Codec ID : V_MPEG4/ISO/AVC
Duration : 1 h 47 min
Bit rate : 3 909 kb/s
Width : 1 920 pixels
Height : 1 036 pixels
Display aspect ratio : 1.85:1
Frame rate mode : Constant
Frame rate : 24.000 FPS
Color space : YUV
Chroma subsampling : 4:2:0
Bit depth : 8 bits
Scan type : Progressive
Bits/(Pixel*Frame) : 0.082
Stream size : 2.93 GiB (75%)
Title : {MINI Super-HQ}_Sword.Master.2016.1080p.BrRip.DTS.x264
Writing library : x264 core 130 r2273 b3065e6
Language : Chinese
Default : Yes
Forced : No
Color range : Limited
Color primaries : BT.709
Transfer characteristics : BT.709
Matrix coefficients : BT.709

Audio #1
ID : 2
Format : AC-3
Format/Info : Audio Coding 3
Mode extension : CM (complete main)
Format settings, Endianness : Big
Codec ID : A_AC3
Duration : 1 h 47 min
Bit rate mode : Constant
Bit rate : 448 kb/s
Channel(s) : 6 channels
Channel positions : Front: L C R, Side: L R, LFE
Sampling rate : 48.0 kHz
Frame rate : 31.250 FPS (1536 spf)
Bit depth : 16 bits
Compression mode : Lossy
Stream size : 345 MiB (9%)
Title : Thai DVD Master
Language : Thai
Default : Yes
Forced : Yes

Audio #2
ID : 3
Format : DTS
Format/Info : Digital Theater Systems
Mode : 16
Format settings, Endianness : Big
Codec ID : A_DTS
Duration : 1 h 47 min
Bit rate mode : Constant
Bit rate : 768 kb/s
Channel(s) : 6 channels
Channel positions : Front: L C R, Side: L R, LFE
Sampling rate : 48.0 kHz
Frame rate : 93.750 FPS (512 spf)
Bit depth : 24 bits
Compression mode : Lossy
Stream size : 591 MiB (15%)
Title : Chinese DTS
Language : Chinese
Default : No
Forced : No

Text #1
ID : 4
Format : VobSub
Codec ID : S_VOBSUB
Codec ID/Info : Picture based subtitle format used on DVDs
Title : Thai 480p From DVD Master
Language : Thai
Default : No
Forced : No

Text #2
ID : 5
Format : VobSub
Codec ID : S_VOBSUB
Codec ID/Info : Picture based subtitle format used on DVDs
Title : Thai 720p
Language : Thai
Default : No
Forced : No

Text #3
ID : 6
Format : VobSub
Codec ID : S_VOBSUB
Codec ID/Info : Picture based subtitle format used on DVDs
Title : Thai 1080p
Language : Thai
Default : Yes
Forced : Yes

Text #4
ID : 7
Format : VobSub
Codec ID : S_VOBSUB
Codec ID/Info : Picture based subtitle format used on DVDs
Title : Thai 1080p Yellow
Language : Thai
Default : No
Forced : No

Text #5
ID : 8
Format : VobSub
Codec ID : S_VOBSUB
Codec ID/Info : Picture based subtitle format used on DVDs
Title : Thai 1080p BIG
Language : Thai
Default : No
Forced : No

Text #6
ID : 9
Format : PGS
Codec ID : S_HDMV/PGS
Codec ID/Info : Picture based subtitle format used on BDs/HD-DVDs
Title : Thai PGS
Language : Thai
Default : No
Forced : No

Text #7
ID : 10
Format : PGS
Codec ID : S_HDMV/PGS
Codec ID/Info : Picture based subtitle format used on BDs/HD-DVDs
Title : Thai PGS Yellow
Language : Thai
Default : No
Forced : No

Text #8
ID : 11
Format : VobSub
Codec ID : S_VOBSUB
Codec ID/Info : Picture based subtitle format used on DVDs
Title : English
Language : English
Default : No
Forced : No



หมายเหตุ ทุกเว็บโหลดแทนกันได้ แต่ต้องเปลี่ยนชื่อให้เรียงกันด้วย

สำหรับสมาชิก VIP เท่านั้น!

[restrict …]

#

|——————————————————————|

|——————————————————————|

[/restrict]

%d bloggers like this: