[MINI-HD 1080p SuperHQ] Colossal (2016) คอลอสซาน ทั้งจักรวาลเป็นของเธอ [พากย์ไทย 5.1 + เสียงอังกฤษ DTS] [บรรยายไทย + อังกฤษ] [MASTER] [MKV] [ONE2UP]

[MINI-HD 1080p SuperHQ] Colossal (2016) คอลอสซาน ทั้งจักรวาลเป็นของเธอ

Colossal/คอลอสซาน ทั้งจักรวาลเป็นของเธอ เล่าเรื่อง กลอเรีย (Anne Hathaway) เป็นสาวปาร์ตี้ที่ไม่ได้ทำงาน หลังจากถูกแฟนหนุ่มไล่ออกจากอพาร์ตเมนต์ บังคับให้เธอต้องย้ายจากนิวยอร์ก กลับไปบ้านเกิดของเธอ เมื่อข่าวรายงานว่าสิ่งมีชีวิตขนาดยักษ์กำลังทำลายกรุงโซลเกาหลีใต้ กลอเรียก็ค่อยๆ ตระหนักว่าเธอเกี่ยวข้องกับปรากฏการณ์อันไกลโพ้นนี้ เมื่อเหตุการณ์เริ่มควบคุมไม่ได้ กลอเรียต้องตัดสินใจว่า ทำไมการมีชีวิตที่ไม่มีนัยสาคัญของเธอ ดูเหมือนจะมีผลมหาศาลต่อชะตากรรมของโลก!!!
.
.
นางเอกสาว แอนน์ แฮทธาเวย์ กลับมาใน Colossal ที่ครั้งนี้จะทำให้เธอกลายเป็นสาวเปลี่ยวเหงา ที่มีความสามารถควบคุมสัตว์ประหลาดยักษ์ไคจู โดย Colossal เป็นผลงานของผู้กำกับ นาโช วิกาลอนโด้ (Open Windows, Timecrimes) ที่ได้เกริ่นๆไว้ว่าภาพยนตร์เรื่องนี้ เป็นดัง Transformers ปะทะ Adaptation หรือไม่ก็ Godzilla พานพบกับ Being John Malkovich โดย แอนน์ แฮทธาเวย์ จะรับบทเป็น กลอเรีย หญิงสาวชีวิตพังทลาย ทั้งเรื่องงานเรื่องรัก จึงคิดย้ายออกจากมหานครนิวยอร์ก กลับไปพักใจที่บ้านเกิด แต่ไม่ทันจะได้ไป เธอก็เห็นข่าวสัตว์ประหลาดกิ้งก่ายักษ์ กำลังถล่มโตเกียวอย่างบ้าคลั่ง แล้วเธอก็รู้สึกได้ว่า สาวธรรมดาคนนี้ สามารถใช้พลังจิตควบคุมไคจูนั้นได้

{MINI Super-HQ}_Colossal.2016.1080p.BrRip.DTS.x264\{MINI Super-HQ}_Colossal.2016.1080p.BrRip.DTS.x264[load2up.com].mkv
Format : Matroska
Format version : Version 4 / Version 2
File size : 3.97 GiB
Duration : 1 h 49 min
Overall bit rate : 5 193 kb/s
Movie name : {MINI Super-HQ}[email protected]
Encoded date : UTC 2010-02-22 21:41:31
Writing application : mkvmerge v5.9.0 (‘On The Loose’) built on Dec 9 2012 15:37:01
Writing library : libebml v1.3.0 + libmatroska v1.4.0

Video
ID : 1
Format : AVC
Format/Info : Advanced Video Codec
Format profile : [email protected]
Format settings, CABAC : Yes
Format settings, ReFrames : 4 frames
Codec ID : V_MPEG4/ISO/AVC
Duration : 1 h 49 min
Bit rate : 3 808 kb/s
Width : 1 920 pixels
Height : 800 pixels
Display aspect ratio : 2.40:1
Frame rate mode : Constant
Frame rate : 23.976 (24000/1001) FPS
Color space : YUV
Chroma subsampling : 4:2:0
Bit depth : 8 bits
Scan type : Progressive
Bits/(Pixel*Frame) : 0.103
Stream size : 2.97 GiB (75%)
Title : {MINI Super-HQ}_Colossal.2016.1080p.BrRip.DTS.x264
Writing library : x264 core 130 r2273 b3065e6
Language : English
Default : Yes
Forced : No
Color range : Limited
Color primaries : BT.709
Transfer characteristics : BT.709
Matrix coefficients : BT.709

Audio #1
ID : 2
Format : AC-3
Format/Info : Audio Coding 3
Format settings, Endianness : Big
Codec ID : A_AC3
Duration : 1 h 49 min
Bit rate mode : Constant
Bit rate : 448 kb/s
Channel(s) : 6 channels
Channel positions : Front: L C R, Side: L R, LFE
Sampling rate : 48.0 kHz
Frame rate : 31.250 FPS (1536 spf)
Bit depth : 16 bits
Compression mode : Lossy
Stream size : 351 MiB (9%)
Title : Thai DVD Master
Language : Thai
Service kind : Complete Main
Default : Yes
Forced : Yes

Audio #2
ID : 3
Format : DTS
Format/Info : Digital Theater Systems
Mode : 16
Format settings, Endianness : Big
Codec ID : A_DTS
Duration : 1 h 49 min
Bit rate mode : Constant
Bit rate : 755 kb/s
Channel(s) : 6 channels
Channel positions : Front: L C R, Side: L R, LFE
Sampling rate : 48.0 kHz
Frame rate : 93.750 FPS (512 spf)
Bit depth : 24 bits
Compression mode : Lossy
Stream size : 590 MiB (15%)
Title : English DTS
Language : English
Default : No
Forced : No

Text #1
ID : 4
Format : VobSub
Codec ID : S_VOBSUB
Codec ID/Info : Picture based subtitle format used on DVDs
Title : Thai Forced
Language : Thai
Default : Yes
Forced : Yes

Text #2
ID : 5
Format : VobSub
Codec ID : S_VOBSUB
Codec ID/Info : Picture based subtitle format used on DVDs
Title : Thai 480p From DVD Master
Language : Thai
Default : No
Forced : No

Text #3
ID : 6
Format : VobSub
Codec ID : S_VOBSUB
Codec ID/Info : Picture based subtitle format used on DVDs
Title : Thai 720p
Language : Thai
Default : No
Forced : No

Text #4
ID : 7
Format : VobSub
Codec ID : S_VOBSUB
Codec ID/Info : Picture based subtitle format used on DVDs
Title : Thai 1080p
Language : Thai
Default : No
Forced : No

Text #5
ID : 8
Format : VobSub
Codec ID : S_VOBSUB
Codec ID/Info : Picture based subtitle format used on DVDs
Title : Thai 1080p Yellow
Language : Thai
Default : No
Forced : No

Text #6
ID : 9
Format : VobSub
Codec ID : S_VOBSUB
Codec ID/Info : Picture based subtitle format used on DVDs
Title : Thai 1080p Out
Language : Thai
Default : No
Forced : No

Text #7
ID : 10
Format : VobSub
Codec ID : S_VOBSUB
Codec ID/Info : Picture based subtitle format used on DVDs
Title : Thai 1080p BIG
Language : Thai
Default : No
Forced : No

Text #8
ID : 11
Format : VobSub
Codec ID : S_VOBSUB
Codec ID/Info : Picture based subtitle format used on DVDs
Title : Thai 1080p Out [BIG] Language : Thai
Default : No
Forced : No

Text #9
ID : 12
Format : PGS
Codec ID : S_HDMV/PGS
Codec ID/Info : Picture based subtitle format used on BDs/HD-DVDs
Title : Thai PGS
Language : Thai
Default : No
Forced : No

Text #10
ID : 13
Format : PGS
Codec ID : S_HDMV/PGS
Codec ID/Info : Picture based subtitle format used on BDs/HD-DVDs
Title : Thai PGS Yellow
Language : Thai
Default : No
Forced : No

Text #11
ID : 14
Format : PGS
Codec ID : S_HDMV/PGS
Codec ID/Info : Picture based subtitle format used on BDs/HD-DVDs
Title : Thai PGS Out
Language : Thai
Default : No
Forced : No

Text #12
ID : 15
Format : PGS
Codec ID : S_HDMV/PGS
Codec ID/Info : Picture based subtitle format used on BDs/HD-DVDs
Title : English
Language : English
Default : No
Forced : No



หมายเหตุ ทุกเว็บโหลดแทนกันได้ แต่ต้องเปลี่ยนชื่อให้เรียงกันด้วย

สำหรับสมาชิก VIP เท่านั้น!

[restrict …]

|——————————————————————|

|——————————————————————|

[/restrict]