[MINI-HD 1080P] Starship Troopers: Traitor of Mars (2017) สงครามหมื่นขา ล่าล้างจักรวาล จอมกบฏดาวอังคาร [พากย์ไทย + อังกฤษ 5.1] [ซับอังกฤษ] [MKV] [ONE2UP]

[MINI-HD 1080P] Starship Troopers: Traitor of Mars (2017) สงครามหมื่นขา ล่าล้างจักรวาล จอมกบฏดาวอังคาร

เริ่มต้นขึ้นเมื่อทางสหพันธ์พยายามโจมตีดาวเคราะห์บ้านเกิดของพวก bugs(แมลงเอเลี่ยน) และ Johnny Rico ถูกลดตำแหน่งและส่งตัวไปยังสถานีดาวเทียมขนาดเล็กบนดาวอังคารเพื่อฝึกฝนกองกำลังชุดใหม่ในสถานีที่เงียบสงบและอยู่ห่างไกลออกไป แต่แล้วจู่ๆ พวก bugs ก็โผล่ขึ้นมาและโจมตีกลุ่มของ Rico โดยไม่ทันตั้งตัว ทำให้ทางสหพันธ์ที่อยู่ห่างไกลไม่สามารถเข้าไปช่วยเห ลือได้ Rico และลูกทีมจึงจำเป็นต้องช่วยกันปกป้องดาวดวงนี้และค้น หาความจริงถึงสาเหตุที่พวก bugs เหล่านี้สามารถเข้ามาใกล้กับสถานีได้อย่างไร

Starship.Troopers.Traitor.of.Mars.2017.1080p.WEB-DL.DD5.1.H264[Load2up.com].mkv
Format : Matroska
Format version : Version 4 / Version 2
File size : 3.51 GiB
Duration : 1 h 27 min
Overall bit rate : 5 718 kb/s
Movie name : Starship.Troopers.Traitor.of.Mars.2017.1080p.WEB-DL.DD5.1.H264
Encoded date : UTC 2017-09-01 03:11:34
Writing application : mkvmerge v9.9.0 (‘Pick Up’) 64bit
Writing library : libebml v1.3.4 + libmatroska v1.4.5
Cover : Yes
Attachments : cover_land.jpg / small_cover.jpg / small_cover_land.jpg / cover.jpg

Video
ID : 1
Format : AVC
Format/Info : Advanced Video Codec
Format profile : High@L4
Format settings, CABAC : Yes
Format settings, ReFrames : 4 frames
Codec ID : V_MPEG4/ISO/AVC
Duration : 1 h 27 min
Bit rate : 5 236 kb/s
Width : 1 920 pixels
Height : 1 080 pixels
Display aspect ratio : 16:9
Frame rate mode : Constant
Frame rate : 23.976 (23976/1000) FPS
Color space : YUV
Chroma subsampling : 4:2:0
Bit depth : 8 bits
Scan type : Progressive
Bits/(Pixel*Frame) : 0.105
Stream size : 3.21 GiB (92%)
Title : Starship.Troopers.Traitor.of.Mars.2017.1080p.WEB-DL.DD5.1.H264
Language : English
Default : Yes
Forced : No
Color range : Limited
Color primaries : BT.709
Transfer characteristics : BT.709
Matrix coefficients : BT.709

Audio #1
ID : 2
Format : AC-3
Format/Info : Audio Coding 3
Format settings, Endianness : Big
Codec ID : A_AC3
Duration : 1 h 27 min
Bit rate mode : Constant
Bit rate : 384 kb/s
Channel(s) : 6 channels
Channel positions : Front: L C R, Side: L R, LFE
Sampling rate : 48.0 kHz
Frame rate : 31.250 FPS (1536 spf)
Bit depth : 16 bits
Compression mode : Lossy
Stream size : 241 MiB (7%)
Title : Starship.Troopers.Traitor.of.Mars.2017.1080p.WEB-DL.DD5.1.H264
Language : English
Service kind : Complete Main
Default : Yes
Forced : No

Audio #2
ID : 3
Format : AAC
Format/Info : Advanced Audio Codec
Format profile : LC
Codec ID : A_AAC
Duration : 1 h 27 min
Bit rate : 96.0 kb/s
Channel(s) : 2 channels
Channel positions : Front: L R
Sampling rate : 44.1 kHz
Frame rate : 43.066 FPS (1024 spf)
Compression mode : Lossy
Stream size : 60.2 MiB (2%)
Language : Thai
Default : No
Forced : No

Text
ID : 4
Format : UTF-8
Codec ID : S_TEXT/UTF8
Codec ID/Info : UTF-8 Plain Text
Duration : 1 h 27 min
Bit rate : 61 b/s
Count of elements : 1468
Stream size : 39.2 KiB (0%)
Language : English
Default : Yes
Forced : No



หมายเหตุ ทุกเว็บโหลดแทนกันได้ แต่ต้องเปลี่ยนชื่อให้เรียงกันด้วย

สำหรับสมาชิก VIP เท่านั้น!

[restrict …]

|——————————————————————|

|——————————————————————|

[/restrict]

%d bloggers like this: