[MINI-HD 1080P] Sleepless (2017) คืนเดือดคนระห่ำ [พากย์ไทยโรง 5.1-เสียงอังกฤษ 5.1] [บรรยายอังกฤษ] [MKV] [ONE2UP] [Filefenix]

[MINI-HD 1080P] Sleepless (2017) คืนเดือดคนระห่ำ

วินเซนท์ ดาวน์ส ตำรวจที่พัวพันอยู่กับอาชญากรรมใต้ดิน ได้ขโมยยาเสพติดล็อตใหญ่จากเจ้าพ่อค้ายาเสพติดไม่นานเมื่อพ่อค้ายาเสพติดได้สืบรู้ว่านี่เป็นฝีมือของวินเซนท์ เขาจึงได้ออกคำสั่งเพื่อลักพาตัวลูกชายของวินเซนท์ โดยมีเงื่อนไขว่าวินเซนท์จะต้องเอายาทั้งหมดไปคืนเพื่อแลกกับชีวิตลูกของเขา แต่ปัญหากลับหนักอึ้งขึ้นไปอีก เมื่อยาที่เขาขโมยมานั้นได้หายไป เขาจึงต้องออกไล่ล่ายาเสพติดพร้อมหาทางช่วยชีวิตลูกของเขาให้ได้

Sleepless.2017.1080p.WEB-DL.DD5.1.H264.ThaiRong[load2up.com].mkv
Format : Matroska
Format version : Version 4 / Version 2
File size : 3.60 GiB
Duration : 1 h 35 min
Overall bit rate : 5 407 kb/s
Movie name : Sleepless.2017.1080p.WEB-DL.DD5.1.H264-FGT
Encoded date : UTC 2017-04-04 15:02:50
Writing application : mkvmerge v10.0.0 (‘To Drown In You’) 64bit
Writing library : libebml v1.3.4 + libmatroska v1.4.5
Cover : Yes
Attachments : small_cover.jpg / small_cover_land.jpg / cover.jpg / cover_land.jpg

Video
ID : 1
Format : AVC
Format/Info : Advanced Video Codec
Format profile : High@L4
Format settings, CABAC : Yes
Format settings, ReFrames : 5 frames
Codec ID : V_MPEG4/ISO/AVC
Duration : 1 h 35 min
Bit rate : 4 572 kb/s
Width : 1 916 pixels
Height : 796 pixels
Display aspect ratio : 2.40:1
Frame rate mode : Constant
Frame rate : 23.976 (24000/1001) FPS
Color space : YUV
Chroma subsampling : 4:2:0
Bit depth : 8 bits
Scan type : Progressive
Bits/(Pixel*Frame) : 0.125
Stream size : 3.04 GiB (85%)
Title : Sleepless.2017.1080p.WEB-DL.DD5.1.H264-FGT
Language : English
Default : Yes
Forced : No
Color range : Limited
Color primaries : BT.709
Transfer characteristics : BT.709
Matrix coefficients : BT.709

Audio #1
ID : 2
Format : AC-3
Format/Info : Audio Coding 3
Mode extension : CM (complete main)
Format settings, Endianness : Big
Codec ID : A_AC3
Duration : 1 h 35 min
Bit rate mode : Constant
Bit rate : 448 kb/s
Channel(s) : 6 channels
Channel positions : Front: L C R, Side: L R, LFE
Sampling rate : 48.0 kHz
Frame rate : 31.250 FPS (1536 spf)
Bit depth : 16 bits
Compression mode : Lossy
Stream size : 305 MiB (8%)
Title : ThaiRong 5.1 By Captain
Language : Thai
Default : Yes
Forced : No

Audio #2
ID : 3
Format : AC-3
Format/Info : Audio Coding 3
Mode extension : CM (complete main)
Format settings, Endianness : Big
Codec ID : A_AC3
Duration : 1 h 35 min
Bit rate mode : Constant
Bit rate : 384 kb/s
Channel(s) : 6 channels
Channel positions : Front: L C R, Side: L R, LFE
Sampling rate : 48.0 kHz
Frame rate : 31.250 FPS (1536 spf)
Bit depth : 16 bits
Compression mode : Lossy
Stream size : 261 MiB (7%)
Title : English 5.1
Language : English
Default : No
Forced : No

Text
ID : 4
Format : UTF-8
Codec ID : S_TEXT/UTF8
Codec ID/Info : UTF-8 Plain Text
Duration : 1 h 28 min
Bit rate : 48 b/s
Count of elements : 1027
Stream size : 31.4 KiB (0%)
Language : English
Default : Yes
Forced : No



หมายเหตุ ทุกเว็บโหลดแทนกันได้ แต่ต้องเปลี่ยนชื่อให้เรียงกันด้วย

สำหรับสมาชิก VIP เท่านั้น!

[restrict …]

#

|——————————————————————|

|——————————————————————|

[/restrict]

%d bloggers like this: